<?xml version="1.0" standalone="no"?>
<!DOCTYPE svg PUBLIC "-//W3C//DTD SVG 1.1//EN" "http://www.w3.org/Graphics/SVG/1.1/DTD/svg11.dtd" >
<svg xmlns="http://www.w3.org/2000/svg">
<metadata>Generated by IcoMoon</metadata>
<defs>
<font id="adorn-icons" horiz-adv-x="1024">
<font-face units-per-em="1024" ascent="960" descent="-64" />
<missing-glyph horiz-adv-x="1024" />
<glyph unicode="&#x20;" horiz-adv-x="512" d="" />
<glyph unicode="&#xe900;" glyph-name="address-book" horiz-adv-x="896" d="M872 640c13.254 0 24 10.746 24 24v80c0 13.254-10.746 24-24 24h-40v96c0 53.020-42.98 96-96 96h-640c-53.020 0-96-42.98-96-96v-832c0-53.020 42.98-96 96-96h640c53.020 0 96 42.98 96 96v96h40c13.254 0 24 10.746 24 24v80c0 13.254-10.746 24-24 24h-40v128h40c13.254 0 24 10.746 24 24v80c0 13.254-10.746 24-24 24h-40v128h40zM416 704c88.366 0 160-71.634 160-160s-71.634-160-160-160-160 71.634-160 160 71.634 160 160 160zM672 240c0-26.51-21.49-48-48-48h-416c-26.51 0-48 21.49-48 48v37.046c0 44.052 29.98 82.45 72.716 93.134l71.314 17.828c58.202-41.864 149.018-53.89 223.94 0l71.314-17.828c42.736-10.684 72.716-49.084 72.716-93.134v-37.046z" />
<glyph unicode="&#xe901;" glyph-name="address-card" d="M928 832h-832c-53.020 0-96-42.98-96-96v-576c0-53.020 42.98-96 96-96h832c53.020 0 96 42.98 96 96v576c0 53.020-42.98 96-96 96zM352 672c77.32 0 140-62.68 140-140s-62.68-140-140-140-140 62.68-140 140 62.68 140 140 140zM576 266c0-23.196-18.804-42-42-42h-364c-23.196 0-42 18.804-42 42v32.414c0 38.544 26.232 72.144 63.626 81.492l62.4 15.6c50.928-36.632 130.39-47.154 195.948 0l62.4-15.6c37.394-9.348 63.626-42.946 63.626-81.492v-32.414zM896 344c0-13.254-10.746-24-24-24h-208c-13.254 0-24 10.746-24 24v16c0 13.254 10.746 24 24 24h208c13.254 0 24-10.746 24-24v-16zM896 472c0-13.254-10.746-24-24-24h-208c-13.254 0-24 10.746-24 24v16c0 13.254 10.746 24 24 24h208c13.254 0 24-10.746 24-24v-16zM896 600c0-13.254-10.746-24-24-24h-208c-13.254 0-24 10.746-24 24v16c0 13.254 10.746 24 24 24h208c13.254 0 24-10.746 24-24v-16z" />
<glyph unicode="&#xe902;" glyph-name="angle-down" horiz-adv-x="640" d="M286 255.4l-272 272c-18.8 18.8-18.8 49.2 0 67.8l45.2 45.2c18.8 18.8 49.2 18.8 67.8 0l192.8-192.8 192.8 192.8c18.8 18.8 49.2 18.8 67.8 0l45.2-45.2c18.8-18.8 18.8-49.2 0-67.8l-272-272c-18.4-18.8-48.8-18.8-67.6 0z" />
<glyph unicode="&#xe903;" glyph-name="angle-left" horiz-adv-x="512" d="M63.4 482l272 272c18.8 18.8 49.2 18.8 67.8 0l45.2-45.2c18.8-18.8 18.8-49.2 0-67.8l-192.6-193 192.8-192.8c18.8-18.8 18.8-49.2 0-67.8l-45.2-45.4c-18.8-18.8-49.2-18.8-67.8 0l-272 272c-19 18.8-19 49.2-0.2 68z" />
<glyph unicode="&#xe904;" glyph-name="angle-right" horiz-adv-x="512" d="M448.6 414l-272-272c-18.8-18.8-49.2-18.8-67.8 0l-45.2 45.2c-18.8 18.8-18.8 49.2 0 67.8l192.8 192.8-192.8 192.8c-18.8 18.8-18.8 49.2 0 67.8l45 45.6c18.8 18.8 49.2 18.8 67.8 0l272-272c19-18.8 19-49.2 0.2-68z" />
<glyph unicode="&#xe905;" glyph-name="angle-up" horiz-adv-x="640" d="M354 640.6l272-272c18.8-18.8 18.8-49.2 0-67.8l-45.2-45.2c-18.8-18.8-49.2-18.8-67.8 0l-193 192.6-192.8-192.8c-18.8-18.8-49.2-18.8-67.8 0l-45.4 45.2c-18.8 18.8-18.8 49.2 0 67.8l272 272c18.8 19 49.2 19 68 0.2z" />
<glyph unicode="&#xe906;" glyph-name="chat" d="M170.667 525.397h221.867c9.439 0 17.067 7.647 17.067 17.067s-7.628 17.067-17.067 17.067h-221.867c-9.439 0-17.067-7.647-17.067-17.067s7.628-17.067 17.067-17.067zM614.4 457.131h-443.733c-9.439 0-17.067-7.647-17.067-17.067s7.63-17.067 17.067-17.067h443.733c9.439 0 17.067 7.647 17.067 17.067s-7.628 17.067-17.067 17.067zM614.4 354.731h-443.733c-9.439 0-17.067-7.645-17.067-17.067 0-9.42 7.63-17.065 17.067-17.065h443.733c9.439 0 17.067 7.645 17.067 17.065s-7.628 17.067-17.067 17.067zM922.828 916.736l-582.689 1.195c-55.808 0-101.205-45.397-101.205-101.205v-87.45l-137.728-0.291c-55.808 0.002-101.205-45.396-101.205-101.204v-360.806c0-55.808 45.397-101.189 101.205-101.189h103.595v-170.667c0-7.049 4.335-13.381 10.923-15.924 1.996-0.768 4.079-1.144 6.144-1.144 4.71 0 9.335 1.963 12.629 5.58l165.615 182.188 283.75 1.16c55.808 0 101.205 45.397 101.205 101.189v1.928l89.769-98.747c3.295-3.619 7.919-5.582 12.631-5.582 2.063 0 4.148 0.376 6.144 1.144 6.589 2.543 10.921 8.875 10.921 15.924v170.667h18.261c55.808 0 101.205 45.397 101.205 101.189v360.841c0.002 55.791-45.379 101.189-101.17 101.205zM750.933 268.186c0-36.984-30.088-67.055-67.141-67.055l-291.328-1.195c-4.779-0.018-9.352-2.050-12.561-5.582l-140.971-155.082v143.598c0 9.422-7.628 17.067-17.067 17.067h-120.661c-36.983 0-67.072 30.088-67.072 67.054v360.808c0 36.984 30.089 67.072 67.105 67.072l154.761 0.325c0.017 0 0.017 0 0.035 0l427.826 0.887c36.984 0 67.072-30.088 67.072-67.072v-360.823zM989.867 454.725c0-36.984-30.088-67.054-67.072-67.054h-35.328c-9.439 0-17.067-7.647-17.067-17.067v-143.599l-85.333 93.868v308.12c0 55.808-45.397 101.205-101.24 101.205l-410.76-0.837v87.381c0 36.983 30.088 67.072 67.037 67.072l582.673-1.195c0.017 0 0.017 0 0.035 0 36.984 0 67.072-30.088 67.072-67.072v-360.823h-0.017z" />
<glyph unicode="&#xe907;" glyph-name="credit-card1" d="M491.251 223.048h-122.437c-11.045 0-20-8.957-20-20s8.955-20 20-20h122.437c11.045 0 20 8.957 20 20s-8.955 20-20 20zM696.536 223.048h-122.437c-11.045 0-20-8.957-20-20s8.957-20 20-20h122.437c11.046 0 20 8.955 20 20 0 11.043-8.955 20-20 20zM904.662 223.048h-122.437c-11.045 0-20-8.957-20-20s8.957-20 20-20h122.437c11.045 0 20 8.957 20 20s-8.957 20-20 20zM865.143 154.045c-13.048 0-25.349-3.238-36.168-8.927-10.821 5.687-23.119 8.927-36.168 8.927-43.011 0-78.001-34.99-78.001-78.001s34.99-78.001 78.001-78.001c13.049 0 25.349 3.238 36.168 8.925 10.821-5.687 23.12-8.925 36.168-8.925 43.011 0 78.001 34.99 78.001 78.001s-34.99 78.001-78.001 78.001zM796.926 38.276c-1.355-0.146-2.729-0.234-4.123-0.234-20.954 0-38 17.047-38 38s17.047 38 38 38c1.394 0 2.766-0.087 4.123-0.236-6.224-11.197-9.785-24.072-9.785-37.764s3.561-26.569 9.785-37.766zM828.973 64.43c-1.18 3.664-1.832 7.563-1.832 11.614s0.653 7.949 1.832 11.614c1.181-3.664 1.832-7.563 1.832-11.614s-0.653-7.949-1.832-11.614zM865.144 38.042c-1.394 0-2.766 0.085-4.123 0.234 6.226 11.197 9.785 24.072 9.785 37.766s-3.559 26.567-9.785 37.764c1.355 0.147 2.729 0.236 4.123 0.236 20.954 0 38-17.047 38-38 0.002-20.954-17.047-38-38-38zM512.008 399.929h-144.004c-11.045 0-20-8.957-20-20v-91.919c0-11.045 8.957-20 20-20h144.004c11.045 0 20 8.957 20 20v91.919c0 11.043-8.957 20-20 20zM492.005 308.010h-104.001v51.918h104.001v-51.918zM514.143-24h-0.263c-11.045 0-20.001-8.957-20.001-20s8.957-20 20.001-20h0.263c11.045 0 20 8.957 20 20s-8.953 20-20 20zM957.35 469.767h-197.296l93.315 93.311c23.047 23.050 23.047 60.555 0 83.607l-288.502 288.5c-23.050 23.050-60.557 23.047-83.607 0l-456.445-456.443c-23.047-23.050-23.047-60.557 0-83.605l227.907-227.907v-164.575c0-32.597 26.52-59.121 59.119-59.121h105.982c10.883 0 19.705 8.824 19.705 19.705 0 10.883-8.823 19.705-19.705 19.705h-105.982c-10.866 0-19.705 8.84-19.705 19.705v407.997c0 10.866 8.84 19.705 19.705 19.705h645.508c10.866 0 19.705-8.84 19.705-19.705v-407.997c0-10.866-8.84-19.705-19.705-19.705h-364.136c-10.881 0-19.705-8.823-19.705-19.705 0-10.881 8.824-19.705 19.705-19.705h364.137c32.596 0 59.119 26.522 59.119 59.121v407.994c-0.002 32.594-26.524 59.118-59.121 59.118zM52.686 423.001c-7.682 7.685-7.682 20.187 0.002 27.872l456.443 456.441c7.685 7.685 20.189 7.682 27.869 0l29.877-29.878-484.314-484.314-29.877 29.878zM252.722 222.969l-78.247 78.244 78.247 78.249v-156.493zM586.54 469.767l44.83 44.828c7.695 7.697 7.695 20.174 0 27.869-7.698 7.695-20.172 7.695-27.871 0l-72.696-72.697h-51.99l106.963 106.966c7.697 7.695 7.697 20.174 0 27.871-7.698 7.695-20.172 7.695-27.869 0l-134.835-134.835h-80.039l217.456 217.463c7.695 7.695 7.695 20.172 0 27.869-7.698 7.695-20.172 7.695-27.869 0l-386.013-386.018-36.173 36.171 484.312 484.312 230.748-230.748c3.721-3.723 5.771-8.672 5.771-13.936s-2.051-10.212-5.773-13.934l-121.183-121.182-117.77 0.002zM614.428 772.287c-3.721 3.72-8.878 5.86-14.16 5.86-5.261-0.002-10.421-2.14-14.118-5.86-3.74-3.72-5.863-8.88-5.863-14.14s2.123-10.421 5.863-14.14c3.699-3.72 8.86-5.86 14.118-5.86 5.282 0 10.439 2.14 14.16 5.86s5.86 8.88 5.86 14.14c0 5.259-2.138 10.419-5.86 14.14z" />
<glyph unicode="&#xe908;" glyph-name="customer-service" d="M790.722 191.021c-13.62 40.828-48.391 70.982-90.746 78.691l-103.446 18.822v1.151c17.51 10.58 32.771 24.163 45.424 40.436h29.994c29.47 0 53.445 23.975 53.445 53.444v193.3c0 118.29-96.236 214.526-214.526 214.526s-214.526-96.236-214.526-214.526v-112.757c0-31.68 21.73-59.467 52.135-67.338 9.641-44.582 37.398-83.324 76.73-107.083v-1.151l-103.462-18.824c-42.362-7.713-77.128-37.868-90.731-78.692l-3.823-11.48-49.003 49.001c-4.288 4.288-4.288 11.262 0 15.551l67.249 67.233-126.668 126.666-75.528-75.528c-22.262-22.262-34.522-51.863-34.522-83.354 0-31.48 12.26-61.079 34.522-83.341l217.7-217.7c22.274-22.274 51.876-34.538 83.357-34.538 31.438 0 60.824 12.065 82.762 33.976l82.328 75.433-19.496 19.456h340.373l-39.541 118.627zM381.278 120.932l66.691-66.692-13.588-12.439-66.774 66.774 13.672 12.357zM175.127 301.073l-66.629 66.627 10.252 10.252 66.627-66.629-10.25-10.25zM344.665 480.822v-33.429c-3.765 4.683-5.865 10.506-5.865 16.714s2.102 12.032 5.865 16.715zM344.665 549.769v-19.682c-1.986-0.644-3.942-1.379-5.865-2.2v48.976c0 94.879 77.19 172.067 172.067 172.067s172.067-77.188 172.067-172.067v-48.973c-1.926 0.827-3.884 1.561-5.865 2.202v19.675h-21.231c-46.252 0-89.754 18.020-122.487 50.738l-22.484 22.484-22.484-22.484c-32.735-32.719-76.236-50.738-122.488-50.738h-21.23zM677.070 480.822c3.765-4.683 5.865-10.506 5.865-16.714s-2.1-12.030-5.865-16.714v33.427zM673.26 396.787c3.233 0.867 6.444 2.011 9.674 3.452v-16.672c0-6.057-4.928-10.985-10.986-10.985h-5.908c3.015 7.861 5.435 15.967 7.22 24.205zM78.465 337.666l66.751-66.751c-17.853-20.975-16.881-52.607 2.92-72.426l115.513-115.513c10.113-10.096 23.537-15.654 37.799-15.654 12.869 0 25.299 4.593 34.644 12.703l66.957-66.957-5.46-5.006c-14.262-14.234-33.2-22.071-53.325-22.071-20.129 0-39.073 7.849-53.337 22.098l-217.699 217.684c-14.241 14.241-22.083 33.175-22.083 53.322 0 20.154 7.842 39.094 22.083 53.335l5.237 5.237zM309.399 113.209l-0.196-0.187c-1.939-1.949-4.765-3.067-7.75-3.067-2.988 0-5.819 1.121-7.774 3.077l-32.942 32.942 10.533 31.629c8.701 26.117 30.949 45.417 58.057 50.365l109.956 19.978 71.585-71.585 71.566 71.566 109.938-19.976c27.116-4.948 49.363-24.246 58.058-50.367l20.93-62.73h-323.947l-64.686 64.683-73.328-66.327zM510.867 236.398l-32.505 32.505c21.392-4.275 43.619-4.272 65.009 0l-32.504-32.505zM387.126 508.344c46.523 4.498 89.118 23.413 123.743 54.951 34.637-31.55 77.237-50.469 123.742-54.953v-76.45c0-20.646-5.281-41.087-15.296-59.31h-113.569v-42.459h75.226c-20.594-14.252-45.009-21.974-70.102-21.974-68.232 0-123.743 55.512-123.743 123.743v76.452zM961.894 952.471h-225.513c-29.47 0-53.445-23.975-53.445-53.445v-128.863c0-29.47 23.975-53.445 53.445-53.445h36.949l-17.562-102.428 163.89 102.428h42.235c29.468 0 53.444 23.975 53.444 53.445v128.863c0 29.47-23.975 53.445-53.444 53.445zM813.625 700.521l10.063 58.652h-87.306c-6.059 0-10.986 4.928-10.986 10.986v128.863c0 6.059 4.928 10.986 10.986 10.986h225.513c6.057 0 10.985-4.929 10.985-10.986v-128.863c0-6.059-4.928-10.986-10.985-10.986h-54.418l-93.852-58.652zM747.366 888.037h203.54v-42.458h-203.54v42.458zM747.366 823.606h139.107v-42.458h-139.107v42.458zM908.447 823.606h42.459v-42.458h-42.459v42.458zM171.813 545.195l-21.845 36.409-37.277-22.367c49.577 178.718 211.553 302.45 398.179 302.45 41.817 0 83.058-6.209 122.58-18.455l4.891-1.516 12.569 40.55-4.891 1.516c-43.585 13.513-89.056 20.365-135.148 20.365-102.723 0-203.543-35.263-283.891-99.293-76.803-61.206-132.216-146.484-157.002-241.204l-26.771 44.629-36.412-21.844 61.89-103.13 103.128 61.89zM844.412 551.186l36.411-21.845 25.050 41.755c12.402-39.77 18.685-81.127 18.685-123.096 0-94.618-32.768-187.118-92.269-260.462l-3.226-3.977 32.969-26.748 3.228 3.976c65.62 80.868 101.756 182.868 101.756 287.212 0 44.924-6.567 89.29-19.533 132.079l40.088-24.047 21.845 36.409-103.13 61.89-61.873-103.145z" />
<glyph unicode="&#xe909;" glyph-name="dollar" d="M937.227 818.875c6.32 5.469 8.57 14.281 5.656 22.109-2.922 7.828-10.391 13.016-18.742 13.016h-91.648c-85.188 66.469-204.367 106-320.492 106-120.75 0-243.305-42.93-331.555-115.508l-28.969 24.375c-5.836 4.906-13.961 6.078-20.938 3-6.984-3.078-11.609-9.859-11.922-17.477l-3.094-74.789c-72.43-87.492-115.523-210.852-115.523-331.602 0-106.055 33.484-216.086 90.227-298.445l-20.57-17.039c-6.016-4.977-8.578-13.008-6.555-20.555 2.016-7.555 8.242-13.234 15.938-14.555l63.445-10.891c92.961-94.648 232.016-150.516 369.516-150.516 134.258 0 267.141 52.211 359.25 140.367l34.727-24.742c6.289-4.477 14.672-4.969 21.484-1.094 6.758 3.844 10.688 11.258 10.055 19.008l-6.227 76.422c58.148 82.109 92.711 194.367 92.711 302.039 0 124.703-45.539 250.094-122.617 339.852zM167.688 802.953c7.609-6.398 18.773-6.234 26.188 0.383 81.852 73.055 200.773 116.664 318.125 116.664 87.461 0 176.602-24.094 248.992-66h-46.352c-6.078 0-11.828-2.766-15.625-7.508-3.789-4.75-5.227-10.961-3.883-16.891l7.922-35.164c-56.344 28.938-124.719 45.563-191.055 45.563-96.188 0-190.836-35.289-250.703-84.539-10.148-8.305-9.828-23.82 1.172-32.203l13.336-10.172-124.016-24.305 5.109 123.25zM814.57 259.687l-102.898-38.258c-7.047-2.625-12.031-8.969-12.898-16.438-0.867-7.461 2.523-14.789 8.773-18.953l25.992-17.32c-59.555-45.281-142.047-72.719-221.539-72.719-83.297 0-170.508 30.203-229.859 79.219l-5.641 92.242c-0.477 7.891-5.563 14.75-12.969 17.516-7.406 2.758-15.742 0.906-21.273-4.734l-27.734-28.297c-33.969 54.523-54.523 127.438-54.523 196.055 0 76.695 25.68 158.227 67.344 214.828l99.805 19.563c7.727 1.516 13.844 7.422 15.633 15.086 1.781 7.672-1.094 15.672-7.352 20.445l-28.133 21.453c0.797 0.633 1.477 1.18 2.109 1.688 56.406 36.914 132.063 58.938 202.594 58.938 71.758 0 148.773-22.477 203.102-58.969l21.789-96.648c1.594-7.078 6.891-12.734 13.852-14.781 6.953-2.055 14.477-0.18 19.656 4.891l27.281 26.727c41.258-57.773 66.32-137.398 66.32-213.219 0-65.867-18.844-137.297-49.43-188.313zM133.328 158.187c-58.438 77.016-93.328 185.352-93.328 289.813 0 91.258 26.477 183.953 72.5 258.727l-1.719-41.617c-0.539-12.945 11.172-22.93 23.828-20.461l38.32 7.516c-33.594-59.398-52.93-132.586-52.93-204.164 0-86.633 28.32-176.141 75.758-239.438 7.383-9.844 21.758-10.703 30.281-2l13.281 13.547 6.781-110.789-117.414 20.148 1.477 1.227c8.242 6.836 9.641 18.961 3.164 27.492zM883.187 116.977c-7.945 7.664-20.602 7.445-28.273-0.5-84.945-87.961-213.133-140.477-342.914-140.477-105.195 0-212.523 36.383-294.055 97.57l46.273-7.945c12.758-2.188 24.125 8.125 23.344 20.938l-2.25 36.727c63.906-42.125 147.031-67.289 226.688-67.289 98.359 0 201.203 38.227 268.406 99.773 4.539 4.148 6.906 10.156 6.438 16.281-0.477 6.133-3.734 11.703-8.852 15.109l-15.648 10.43 120.945 44.969 10.867-133.398zM925.812 213.234l-4.797 58.906c-0.508 6.25-3.914 11.891-9.195 15.25-5.289 3.367-11.844 4.063-17.711 1.875l-24.313-9.039c21.797 50.766 34.203 110.359 34.203 167.773 0 92.625-34.094 190.75-88.961 256.086-3.586 4.266-8.781 6.844-14.344 7.109-5.547 0.273-10.992-1.789-14.969-5.688l-17.703-17.344-28.375 125.836h130.82l-10-8.656c-0.297-0.258-0.57-0.539-0.852-0.813-0.141-0.133-0.297-0.242-0.438-0.375-8.023-7.586-8.383-20.25-0.797-28.273 78.656-83.227 125.617-205.797 125.617-327.883 0-81.437-21.242-165.516-58.188-234.766zM512 628c10.703 0 19.438 8.422 19.977 19 0.023 0.32 0.023 0.656 0.023 1 0 11.039-8.961 20-20 20s-20-8.961-20-20c0-0.344 0-0.68 0.023-1 0.539-10.578 9.273-19 19.977-19zM731.484 463.055c-6.172 83.313-55.898 153.313-133.031 187.25-10.109 4.445-21.914-0.141-26.359-10.25-4.453-10.109 0.141-21.914 10.25-26.359 63.32-27.867 104.148-85.234 109.242-153.484 6.797-108-79.188-192.211-179.586-192.211-98.188 0-181.383 78.609-179.961 183.758 2.164 71.914 44.086 133.922 109.422 161.852 10.156 4.344 14.867 16.094 10.531 26.25-4.344 10.164-16.094 14.875-26.258 10.531-79.875-34.148-131.102-109.867-133.688-197.602v-0.305c-1.844-128.555 100.453-224.484 219.953-224.484 122.469 0 227.891 102.719 219.5 234.852-0.008 0.070-0.008 0.133-0.016 0.203zM514 429.422c11.031 0 20-8.977 20-20 0-11.031-8.969-20-20-20-8.547 0-17.773 5.375-25.969 15.125-7.109 8.461-19.727 9.555-28.18 2.438-8.461-7.102-9.547-19.719-2.438-28.172 10.688-12.719 23.266-21.586 36.586-26.055v-23.336c0-11.047 8.953-20 20-20s20 8.953 20 20v23.438c23.281 8.258 40 30.484 40 56.563 0 33.078-26.914 60-60 60-11.031 0-20 8.969-20 20 0 11.023 8.969 20 20 20 7.086 0 14.563-3.617 21.633-10.461 7.938-7.68 20.594-7.469 28.281 0.469 7.68 7.938 7.469 20.602-0.469 28.281-10.148 9.82-20.305 15.375-29.445 18.406v23.305c0 11.039-8.953 20-20 20s-20-8.961-20-20v-23.445c-23.281-8.25-40-30.484-40-56.555 0-33.086 26.914-60 60-60z" />
<glyph unicode="&#xe90a;" glyph-name="arrow-alt-down" horiz-adv-x="896" d="M352 896h192c26.6 0 48-21.4 48-48v-400h207.6c42.8 0 64.2-51.6 34-82l-351.6-352c-18.8-18.8-49.2-18.8-68 0l-351.4 352c-30.2 30.2-8.8 82 34 82h207.4v400c0 26.6 21.4 48 48 48z" />
<glyph unicode="&#xe90b;" glyph-name="phone-old" d="M883.507 332.646c-4.915 34.15-31.283 60.774-65.229 68.71-131.942 30.925-165.018 106.906-170.598 191.181-23.398 4.352-65.024 9.062-135.68 9.062s-112.282-4.71-135.68-9.062c-5.581-84.275-38.656-160.256-170.598-191.181-33.946-7.987-60.314-34.56-65.229-68.71l-25.446-176.23c-8.96-62.054 36.608-118.016 99.994-118.016h593.92c63.334 0 108.954 55.962 99.994 118.016l-25.446 176.23zM512 166.81c-71.424 0-129.331 57.344-129.331 128s57.907 128 129.331 128 129.331-57.344 129.331-128-57.958-128-129.331-128zM1021.44 652.8c-1.229 76.8-196.71 204.749-509.44 204.8-312.781-0.051-508.262-128-509.44-204.8s1.075-176.742 129.792-160.102c150.579 19.507 141.312 72.090 141.312 147.251 0 52.429 122.47 65.075 238.336 65.075s238.285-12.646 238.336-65.075c0-75.162-9.267-127.744 141.312-147.251 128.666-16.64 130.97 83.302 129.792 160.102z" />
<glyph unicode="&#xe90c;" glyph-name="truck-front" d="M863.008 544c-17.696 0-32 0-32 0h-63.328l-0.416-40.192c19.136-10.912 31.744-31.648 31.744-55.808l1.344-222.016h-607.36v222.016c0 23.616 12.928 44.032 32 55.136v40.864h-64c0 0-14.336 0-32 0-17.696 0-32 14.336-32 32v32c0 17.696 14.304 32 32 32 17.664 0 32 0 32 0v-64h64v96c0 35.328 28.672 64 64 64h416c35.328 0 64-28.672 64-64l-0.992-96h63.008v64c0 0 14.304 0 32 0 17.664 0 32-14.304 32-32v-32c0-17.664-14.336-32-32-32zM384.992 256h224v32h-224v-32zM384.992 320h224v32h-224v-32zM384.992 384h224v32h-224v-32zM256.992 288c0-17.664 14.304-32 32-32h32c17.664 0 32 14.336 32 32 0 17.696-14.336 32-32 32h-32c-17.664 0-32-14.304-32-32zM704.992 640c0 17.696-14.304 32-32 32h-352c-17.696 0-32-14.304-32-32v-160h416v160zM704.992 320h-32c-17.696 0-32-14.304-32-32 0-17.664 14.304-32 32-32h32c17.664 0 32 14.336 32 32 0 17.696-14.336 32-32 32zM736.992 768h-480c-35.328 0-64-28.672-64-64v160c0 17.696 14.304 32 32 32h544c17.664 0 32-14.304 32-32v-160c0 35.328-28.64 64-64 64zM800.992 161.984c0-17.664-14.336-32-32-32h-544c-17.696 0-32 14.336-32 32 0 17.696 0 32 0 32h608c0 0 0-14.304 0-32zM352.992 32c0-17.664-14.336-32-32-32h-32c-17.696 0-32 14.336-32 32v64h96v-64zM736.992 32c0-17.664-14.336-32-32-32h-32c-17.696 0-32 14.336-32 32v64h96v-64z" />
<glyph unicode="&#xe90d;" glyph-name="truck-line" d="M794.624 593.76c-5.952 8.896-15.936 14.24-26.624 14.24h-32c-17.696 0-32-14.304-32-32v-192c0-17.696 14.304-32 32-32h128c17.696 0 32 14.304 32 32v48c0 6.304-1.888 12.512-5.376 17.76l-96 144zM864 384h-128v192h32l96-144v-48zM1007.872 469.248l-128 192c-17.856 26.784-47.744 42.752-79.872 42.752h-128v64c0 52.928-43.072 96-96 96h-480c-52.928 0-96-43.072-96-96v-352c0-52.928 43.072-96 96-96v0-96c0-52.928 43.072-96 96-96h36.544c14.304-55.072 64-96 123.488-96 59.424 0 109.12 40.928 123.424 96h169.024c14.304-55.072 64-96 123.488-96 59.424 0 109.12 40.928 123.424 96h36.608c52.928 0 96 43.072 96 96v192c0 19.008-5.568 37.44-16.128 53.248zM96 384c-17.664 0-32 14.304-32 32v352c0 17.696 14.336 32 32 32h480c17.696 0 32-14.304 32-32v-352c0-17.696-14.304-32-32-32h-480zM352.032 96c-35.36 0-64 28.672-64 64s28.64 64 64 64c35.328 0 64-28.672 64-64s-28.704-64-64-64zM768 96c-35.36 0-64 28.672-64 64s28.64 64 64 64c35.328 0 64-28.672 64-64s-28.672-64-64-64zM960 224c0-17.696-14.304-32-32-32h-36.576c-14.304 55.072-64 96-123.424 96-59.488 0-109.184-40.928-123.488-96h-169.024c-14.304 55.072-64 96-123.424 96-59.488 0-109.184-40.928-123.488-96h-36.576c-17.664 0-32 14.304-32 32v96h416c52.928 0 96 43.072 96 96v224h128c10.688 0 20.672-5.344 26.624-14.24l128-192c3.488-5.248 5.376-11.456 5.376-17.76v-192z" />
<glyph unicode="&#xe90e;" glyph-name="amazon" horiz-adv-x="896" d="M514.4 634.6c-97.4-3.6-339-31-339-235 0-219 276.6-228 367-86.4 13-20.4 70.8-75 90.6-93.6l113.6 112s-64.6 50.6-64.6 105.6v294.2c0 50.6-49 164.6-224.6 164.6-176 0-269.4-110-269.4-208.6l147-13.6c32.6 99 108.4 99 108.4 99 81.4 0.2 71-59.6 71-138.2zM514.4 461c0-160-168.4-136-168.4-34.4 0 94.4 101 113.4 168.4 115.6v-81.2zM786.4 134c-15.4-20-140-134-349-134s-369 143-418 202c-13.6 15.4 2 22.6 11 16.6 146.6-89 375.6-235.6 745-60.6 15 7.4 26.6-4 11-24zM866 129.6c-13-31.6-32-53.6-42.4-62-11-9-19-5.4-13 7.6s38.6 93 25.4 110c-13 16.6-74 8.6-96 6.4-21.6-2-26-4-28 0.6-4.6 11.4 43.4 31 75 35 31.4 3.6 82 1.6 92-11.4 7.4-10.2 0-54.2-13-86.2z" />
<glyph unicode="&#xe90f;" glyph-name="arrow-alt-left" horiz-adv-x="896" d="M896 544v-192c0-26.6-21.4-48-48-48h-400v-207.6c0-42.8-51.6-64.2-82-34l-352 351.6c-18.8 18.8-18.8 49.2 0 68l352 351.4c30.2 30.2 82 8.8 82-34v-207.4h400c26.6 0 48-21.4 48-48z" />
<glyph unicode="&#xe910;" glyph-name="arrow-alt-right" horiz-adv-x="896" d="M0 352v192c0 26.6 21.4 48 48 48h400v207.6c0 42.8 51.6 64.2 82 34l352-351.6c18.8-18.8 18.8-49.2 0-68l-352-351.4c-30.2-30.2-82-8.8-82 34v207.4h-400c-26.6 0-48 21.4-48 48z" />
<glyph unicode="&#xe911;" glyph-name="fire" horiz-adv-x="810" d="M700.433 452.442c-17.873 82.108-33.307 153.018-3.502 215.214 4.080 8.509 3.046 18.45-2.697 25.944-4.684 6.11-12.078 9.759-19.775 9.759-1.532 0-3.076-0.143-4.579-0.424-2.559-0.478-25.852-5.244-55.398-25.343-34.788-23.665-63.639-57.997-85.906-102.19-13.611 18.292-30.384 44.022-45.295 76.063-41.074 88.265-48.175 179.012-21.109 269.717 2.714 9.078-0.043 19.084-7.020 25.487-4.615 4.237-10.605 6.572-16.866 6.572-3.132 0-6.199-0.582-9.123-1.731-1.951-0.769-48.288-19.364-91.794-66.723-40.017-43.562-85.643-120.858-75.75-241.708 2.723-33.253 4.023-63.426 3.898-90.218-9.694 19.932-21.795 38.693-36.195 56.086-31.968 38.622-64.154 57.076-65.496 57.836-3.748 2.129-8.007 3.254-12.315 3.254-5.21 0-10.208-1.597-14.451-4.616-7.868-5.597-11.816-15.35-10.058-24.847 18.563-100.276 0.095-157.45-19.461-217.988-14.909-46.155-30.324-93.882-30.324-160.627 0.004-179.088 145.703-324.788 324.789-324.788s324.785 145.698 324.785 324.785c0.001 69.41-14.002 133.734-26.355 190.485zM544.697 27.031c10.209 21.135 15.504 44.278 15.504 68.342 0 108.129-33.139 197.103-60.938 252.704-30.241 60.481-60.565 95.429-61.839 96.885-4.735 5.412-11.575 8.516-18.766 8.516-6.035 0-11.863-2.191-16.407-6.168-5.011-4.384-8.014-10.456-8.458-17.099s1.727-13.062 6.097-18.057c0.139-0.16 7.149-8.307 17.572-23.379-0.834 0.321-1.688 0.601-2.576 0.801-1.307 0.293-2.647 0.443-3.981 0.443-8.55 0-15.828-5.83-17.699-14.174-0.859-3.826-1.835-7.234-2.838-10.226-16.605 14.127-31.018 14.971-34.188 14.971-10.006 0-18.147-8.141-18.147-18.147 0-12.148-1.414-22.454-4.449-32.433-1.409-4.637-0.929-9.546 1.354-13.822s6.094-7.408 10.729-8.817c1.721-0.524 3.499-0.79 5.285-0.79 8.040 0 15.016 5.172 17.358 12.87 1.375 4.521 2.504 9.096 3.399 13.781 2.25-2.46 4.634-5.464 7.080-9.134 3.025-4.543 7.876-7.458 13.308-7.997 0.596-0.059 1.201-0.089 1.799-0.089 0 0 0 0 0 0 4.847 0 9.404 1.89 12.827 5.317 2.464 2.466 15.103 16.298 21.896 46.565 0.247 1.097 0.379 2.199 0.423 3.299 8.197-13.044 17.38-28.971 26.547-47.507 24.981-50.519 54.759-131.135 54.759-228.312 0-59.742-48.603-108.345-108.344-108.345-62.009 0-108.343 57.201-108.343 108.345 0 25.957 5.651 43.576 11.178 57.387 5.105 12.761-1.124 27.297-13.885 32.405-2.966 1.186-6.080 1.788-9.256 1.788-10.253 0-19.339-6.151-23.147-15.673-6.865-17.169-14.744-41.313-14.744-75.906 0-23.767 6.139-47.647 17.66-69.649-82.636 49.208-134.395 138.543-134.395 236.238 0 58.897 13.558 100.871 27.92 145.331 16.267 50.368 33.032 102.278 28.938 177.778 27.601-30.721 59.877-82.482 59.877-156.523 0-9.942 5.895-18.918 15.011-22.866 3.147-1.366 6.482-2.058 9.91-2.058 6.353 0 12.407 2.392 17.049 6.737 9.788 9.169 40.554 53.344 25.532 236.789-6.719 82.053 14.096 150.325 61.865 202.919 8.601 9.469 17.962 18.255 27.978 26.266-15.544-103.269 10.878-189.923 36.926-245.901 34.371-73.859 77.734-117.722 79.567-119.557 4.709-4.709 10.97-7.301 17.631-7.301 1.766 0 3.538 0.189 5.273 0.563 8.321 1.803 15.074 7.639 18.061 15.609 21.586 57.559 50.268 90.98 74.984 110.29-9.762-60.093 3.828-122.536 18.123-188.202 12.398-56.933 25.218-115.804 25.218-179.879 0.004-96.492-50.94-185.408-132.235-234.926z" />
<glyph unicode="&#xe912;" glyph-name="fire-l" horiz-adv-x="810" d="M767.655 377.939c-4.909 38.189-15.37 77.797-31.092 117.721-24.681 62.679-55.645 109.155-67.818 126.233-0.277 0.387-0.478 0.67-0.641 0.904l-0.127 0.174c-4.427 5.947-11.598 9.497-19.181 9.497-4.79 0-9.409-1.397-13.378-4.055-6.905-4.674-10.76-12.611-10.072-20.729 4.166-72.397-9.505-144.895-39.647-211.242 4.153 49.683 3.503 108.163-1.956 174.305-22.365 267.574-277.367 383.133-279.871 384.196-3.11 1.379-6.408 2.078-9.803 2.078-9.067 0-17.421-5.137-21.272-13.063-1.945-3.946-2.673-8.36-2.099-12.792 14.074-104.49-11.895-151.249-81.297-276.208-31.327-56.183-65.347-117.942-106.397-200.491-35.239-70.923-49.774-142.074-43.201-211.477 5.268-55.626 24.029-110.145 55.761-162.046 54.859-89.728 129.72-140.504 130.392-140.936 3.928-2.622 8.533-4.009 13.349-4.009h0.101c6.223 0.089 12.059 2.496 16.434 6.779 4.5 4.408 6.925 10.26 6.829 16.475-0.047 3.052-0.726 6.049-2.017 8.915-78.73 250.786 23.741 381.666 79.929 431.386 1.168-70.605 18.375-144.108 49.994-213.247 26.28-57.467 53.568-92.34 53.81-92.646 4.42-5.728 11.491-9.149 18.913-9.149 2.223 0 4.445 0.307 6.634 0.92 20.314 5.834 49.859 20.864 87.906 44.713-10.515-71.075-36.821-163.766-37.103-164.758-1.636-5.838-0.862-11.961 2.181-17.241 3.15-5.461 8.328-9.354 14.605-10.964 1.884-0.474 3.843-0.714 5.819-0.714 0.001 0 0.001 0 0.002 0 5.109 0 10.167 1.613 14.288 4.574 6.306 4.642 155.008 115.832 202.763 301.753 10.906 42.327 13.351 87.794 7.265 135.142zM608.923 175.488c0 12.629-10.561 22.904-23.541 22.904-5.049 0-9.857-1.516-13.919-4.394-0.586-0.417-58.768-41.291-99.36-58.879-25.384 38.947-95.776 161.94-82.83 309.381 0.552 5.976-1.301 11.829-5.217 16.479-4.084 4.851-9.856 7.801-16.21 8.303-4.713 0.422-9.518-0.583-13.682-2.885l-0.193-0.11c-6.386-3.68-63.722-38.081-109.67-111.727-27.302-43.761-45.346-92.855-53.633-145.922-8.9-57.003-6.487-118.882 7.163-184.152-73.59 73.771-168.398 216.94-72.373 410.087l6.682 13.44h-0.18c37.593 74.925 69.729 132.978 95.706 179.906l3.143 5.679c32.609 58.734 56.169 101.17 71.272 141.574 14.834 39.684 20.673 75.421 19.090 117.892 65.199-40.155 200.093-144.401 214.92-325.808 14.449-176.285-8.869-251.257-24.088-280.32l-0.109-0.219c-1.843-3.834-4.228-7.434-7.087-10.703-4.323-4.364-6.659-10.1-6.58-16.171 0.083-6.198 2.665-11.961 7.268-16.223 4.408-4.097 10.197-6.354 16.299-6.354 5.787 0 11.353 2.058 15.675 5.795l0.68 0.651c74.073 78.464 120.564 178.578 131.938 283.455 31.176-62.161 71.009-169.276 44.216-273.876-25.092-97.705-81.606-174.113-128.731-224.028 11.441 48.531 23.35 108.191 23.35 146.225z" />
<glyph unicode="&#xe913;" glyph-name="free-delivery" d="M829 482.57h-118.985v110.060h24.988c8.284 0 15 6.715 15 15v160c0 8.286-6.716 15-15 15h-85.117c-1.334 75.45-15.221 140.005-114.875 140.005-62.81 0-120.482-37.808-145.032-61.191-4.884 0.778-9.889 1.193-14.989 1.193-5.093 0-10.091-0.415-14.972-1.191-24.548 23.385-82.214 61.189-145.028 61.189-99.653 0-113.537-64.556-114.872-140.005h-85.117c-8.284 0-15-6.715-15-15v-160c0-8.286 6.716-15 15-15h24.999v-145.048c0-8.279 6.74-15 15-15 8.281 0 15 6.721 15 15v144.299h210v-329.298h-210v125c0 8.261-6.72 15-15 15-8.261 0-15-6.74-15-15v-300c0-1.295 0.182-2.547 0.494-3.748 1.663-6.47 7.519-11.259 14.51-11.259h66.814c7.374-55.905 55.306-99.208 113.192-99.208s105.818 43.301 113.192 99.208h347.604c7.374-55.905 55.308-99.208 113.192-99.208s105.817 43.301 113.19 99.208h86.811c8.284 0 15 6.715 15 15v199.995c0 107.525-87.475 195-195 195zM813.991 452.57v-89.992h-103.978v89.992h103.978zM720.001 752.63v-129.999h-250v129.999h250zM680.015 591.88v-329.298h-210.014v329.298h210.014zM535.010 892.635c47.014 0 62.198-15.718 70.174-29.412 11.236-19.292 14.11-49.324 14.689-80.593h-151.078c-4.573 28.717-22.065 53.166-46.306 67.226 25.451 19.635 69.336 42.779 112.521 42.779zM309.999 622.63v129.999h130.001v-129.999h-130.001zM440.002 591.88v-329.298h-130.001v329.298h130.001zM374.991 832.637c30.682 0 56.444-21.372 63.234-50.009h-126.471c6.792 28.634 32.556 50.009 63.237 50.009zM144.821 863.224c7.976 13.695 23.16 29.412 70.171 29.412 43.189 0 87.067-23.137 112.511-42.772-24.248-14.058-41.746-38.512-46.318-67.234h-151.055c0.579 31.269 3.452 61.304 14.691 80.595zM30.001 622.63v129.999h250v-129.999h-250zM235.010 3.368c-46.431 0-84.207 37.778-84.207 84.211 0 46.431 37.776 84.207 84.207 84.207s84.211-37.776 84.211-84.207c-0.002-46.435-37.778-84.211-84.211-84.211zM808.998 3.368c-46.433 0-84.209 37.778-84.209 84.211 0 46.431 37.776 84.207 84.209 84.207 46.431 0 84.207-37.776 84.207-84.207 0-46.435-37.776-84.211-84.207-84.211zM993.999 102.572h-71.807c-7.37 55.908-55.306 99.211-113.194 99.211s-105.823-43.302-113.194-99.211h-347.601c-7.37 55.908-55.304 99.211-113.194 99.211-57.888 0-105.823-43.302-113.194-99.211h-51.816v130.010h625.015c8.282 0 15 6.715 15 15v84.997h118.976c22.018 0 42.628-18.859 66.49-40.692 27.163-24.854 57.578-52.654 98.518-58.271v-131.044zM993.999 264.043c-29.982 5.818-54.476 28.207-78.266 49.977-22.1 20.221-44.838 41.020-71.742 46.91v90.927c83.978-7.603 150.008-78.363 150.008-164.287v-23.527zM235.010 142.579c-30.327 0-55-24.675-55-55 0-30.327 24.673-55 55-55s55 24.673 55 55c0 30.325-24.671 55-55 55zM235.010 62.578c-13.786 0-24.999 11.214-24.999 24.999s11.214 24.999 24.999 24.999 24.999-11.214 24.999-24.999c0-13.782-11.215-24.999-24.999-24.999zM808.998 142.579c-30.328 0-55-24.675-55-55 0-30.327 24.671-55 55-55s55 24.673 55 55c0 30.325-24.671 55-55 55zM808.998 62.578c-13.786 0-24.999 11.214-24.999 24.999s11.214 24.999 24.999 24.999 24.999-11.214 24.999-24.999c0-13.782-11.214-24.999-24.999-24.999z" />
<glyph unicode="&#xe914;" glyph-name="gift-box" d="M956.112 419.556h-48.316c7.291 11.531 11.163 24.898 11.179 38.538v0.103c-0.35 40.632-33.247 73.452-73.881 73.702-34.47 0-66.153-16.548-90.221-48.060v46.675c29.915 10.47 50.051 38.59 50.325 70.282v95.683c0.018 19.504-7.761 38.214-21.616 51.957-13.846 13.734-32.615 21.377-52.119 21.204h-105.163l7.658 31.256c7.487 30.085 3.726 61.862-10.59 89.359-14.231 27.556-38.393 48.684-67.599 59.112-57.871 20.539-122.171-2.965-153.145-55.992-22.058 38.052-63.16 62.25-110.229 64.438h-0.376c-25.574-0.153-50.504-7.967-71.582-22.436-42.71-28.88-62.838-83.283-50.095-134.291l7.684-31.444h-103.238c-40.846 0-74.787-32.324-74.787-73.163v-95.683c0-32.685 21.88-60.479 52.513-70.282v-489.623c0-51.239 40.608-93.95 91.854-93.95h774.888c37.043 0 67.547 31.153 67.547 68.197v225h18.983c9.881 0.12 17.916 8.008 18.213 17.889v94.094c-0.357 37.273-30.613 67.332-67.886 67.435zM772.897 448.915c20.042 31.915 44.281 48.034 71.94 48.034 21.36-0.153 38.658-17.384 38.897-38.744 0.188-10.214-3.761-20.069-10.931-27.342s-16.975-11.352-27.189-11.308h-87.889c4.24 10.187 9.319 20.010 15.172 29.359zM463.863 734.632v-172.855h-122.53v172.855h122.53zM463.863 526.769v-124.915c-13.846-12.846-21.76-30.847-21.88-49.734v-94.094c0.018-9.77 7.846-17.719 17.607-17.889h4.273v-258.188h-122.53v544.821h122.53zM498.872 526.769h95.488c-27.342-10.94-47.351-37.555-47.351-68.573v-0.103c0.035-13.649 3.932-27.009 11.249-38.538h-48.992c-3.479-0.138-6.949-0.47-10.393-1.017v108.231zM719.863 472.033c-19.692 27.803-41.137 45.984-66.453 54.736h66.453v-54.736zM582.308 458.17c0.214 21.36 17.436 38.632 38.794 38.905 47.461 0 74.89-49.078 87.163-77.522h-87.839c-10.205-0.050-20.010 4.017-27.18 11.29-7.177 7.266-11.117 17.121-10.938 27.326zM770.188 696.478v-95.683c0.059-10.317-3.991-20.231-11.257-27.556s-17.154-11.443-27.471-11.461h-232.588v172.855h232.59c10.222 0.179 20.095-3.77 27.377-10.949 7.282-7.17 11.376-16.984 11.349-27.206zM512.317 921.777c10.82 0.103 21.572-1.685 31.777-5.291 42.478-15.069 67.035-62.385 55.898-107.137l-9.778-39.708h-170.111v57.154c-0.068 0.65-0.197 1.291-0.376 1.923h0.112c0 0-0.044 1.512-0.050 2.3 2.144 50.060 42.811 90.375 92.53 90.76zM204.308 809.325c-9.188 36.794 5.17 76.146 35.735 96.829 15.272 10.608 33.376 16.41 51.975 16.649h0.274c50.401-2.188 91.624-41.179 92.692-91.3-0.044-1.403 0.112-3.3 0.112-4.709v-57.154h-170.975l-9.811 39.684zM35.009 600.795v95.683c0 21.539 18.231 38.155 39.778 38.155h231.538v-172.855h-231.538c-21.701-0.059-39.42 17.325-39.778 39.017zM87.521 40.888v485.881h218.803v-544.821h-161.958c-31.939 0-56.845 27-56.845 58.939zM546.785-18.051c-17.734 0-32.597 15.454-32.597 33.188v225h140.034v-258.188h-107.437zM689.231-18.051v258.188h87.521v-258.188h-87.521zM951.795 15.137c0-17.734-14.804-33.188-32.538-33.188h-107.496v258.188h140.034v-225zM988.991 275.145h-512v76.975c0.050 17.828 14.445 32.3 32.274 32.427h446.847c17.948-0.085 32.547-14.478 32.88-32.427v-76.975z" />
<glyph unicode="&#xe915;" glyph-name="amazon-pay" horiz-adv-x="1222" d="M0 309.6c4.6 8.4 10.4 9.8 19.4 5 20.8-11.2 41.2-22.8 62.4-33.4 81.4-40.8 166.4-71.2 254.8-92.6 41.8-10 83.8-18 126.4-23.6 63-8.4 126.4-12 190-10.4 34.8 0.8 69.6 3.6 104.2 7.6 112.8 13.4 221.8 41.6 326.6 85.6 5.8 2.4 11.8 4 18.2 2.4 13.4-3.6 18-18 8.2-27.8-5.6-5.6-12.6-10.2-19.2-14.8-61.4-42.2-128.4-72.8-199.2-95.8-49.2-15.8-99.2-27.6-150.2-35.2-35.2-5.2-70.8-8.8-106.4-9.6-1.6 0-3.4-0.4-5-0.6h-42.2c-1.6 0.2-3.4 0.6-5 0.6-7.2 0.4-14.4 0.6-21.4 0.8-33.8 1.4-67.4 5.2-100.8 10.6-54.8 9-108.4 22.8-160.8 41.8-108.2 39.2-205.2 97.2-291.2 174-3.6 3.2-6 7.6-8.8 11.4v4zM316 830c-2.8-0.4-5.8-0.8-8.6-1.2-28-3.4-53.2-13.8-76-30.2-4.8-3.4-9.2-7-14.2-10.8-0.4 1-0.8 2-0.8 2.8-0.8 5.4-1.6 11-2.6 16.4-1.4 9.2-6 13.2-15.2 13.2h-23c-13.8 0-16.4-2.6-16.4-16.4v-418.6c0-2 0-4 0.2-6 0.4-6 4-9.8 9.8-10 14-0.2 28.2-0.2 42.2 0 5.8 0 9.4 4 10 10 0.2 2 0.2 4 0.2 6v144.8c2.2-1.8 3.4-2.8 4.4-3.8 35.8-29.8 77-39.6 122-30.8 40.8 8 69.2 33 87.6 69.8 14 27.8 19.8 57.4 20.6 88.2 1 34.2-2.4 67.8-16.2 99.6-17 39.2-45.2 65-87.8 73.8-6.4 1.4-13 2-19.6 3-5.6 0.2-11 0.2-16.6 0.2zM221.2 746.2c0 3 0.8 4.8 3.4 6.6 27.4 19 57.6 29 91.2 26.4 29.8-2.2 54.2-16.8 67-51.8 7.8-21.4 9.8-43.6 9.8-66 0-20.8-1.6-41.2-8-61.2-13.6-42.6-44.8-58.8-85.2-57-28 1.2-52.4 12-74.8 27.8-2.4 1.8-3.4 3.4-3.4 6.6 0.2 28.2 0 56.2 0 84.4 0 28 0.2 56 0 84.2zM632.6 830c-2-0.2-4-0.6-5.8-0.8-19.6-1-38.8-3.4-57.8-8.2-12.2-3.2-24-7.6-35.8-11.6-7.2-2.4-10.8-7.6-10.6-15.4 0.2-6.6-0.2-13.2 0-19.8 0.2-9.6 4.2-12.2 13.6-9.8 15.6 4 31.2 8.4 47 11.4 24.6 4.6 49.4 6.6 74.4 2.8 13-2 25.2-5.8 33.6-16.8 7.4-9.6 10.2-21 10.6-32.8 0.6-16.6 0.4-33.2 0.6-49.8 0-0.8-0.2-1.8-0.4-2.8-1 0.2-1.8 0-2.6 0.2-21 5-42.2 8.6-64 9.8-22.6 1.2-45-0.2-66.6-7.8-25.8-9-46.6-24.6-58.8-49.8-9.4-19.6-10.8-40.4-7.8-61.4 4-28 18-49.6 42.8-63.4 23.8-13.2 49.6-14.8 75.8-10.8 30.2 4.6 57 17.4 80.6 36.8 0.8 0.8 1.8 1.4 3.2 2.2 1.2-7.6 2.2-14.8 3.6-22 1.2-6.2 5-10.2 10.8-10.4 10.8-0.2 21.8-0.2 32.6 0 5.4 0.2 9 3.8 9.6 9.4 0.2 1.8 0.2 3.8 0.2 5.6v212c0 8.6-0.4 17.2-1.8 25.8-3.8 25.8-14.8 47-38 60.8-13.4 8-28.2 12-43.6 14.2-7.2 1-14.4 1.6-21.6 2.6-7.8-0.2-15.8-0.2-23.8-0.2zM702.6 574.6c0-2.6-0.8-4.4-3-6-22.4-16.2-47-27-74.8-29.8-11.4-1.2-22.8-0.8-33.6 3.6-12.6 5-20.8 13.8-24.8 26.6s-4 26-0.2 38.8c5 16.6 16.8 26 32.8 31.2 16.2 5.2 33 6 49.6 4.4 16.8-1.4 33.2-4.6 50-6.8 3.2-0.4 4.2-2 4.2-5.2-0.2-9.6 0-19 0-28.6-0.2-9.4-0.4-18.8-0.2-28.2zM1222.4 315.8c-2 10-9.6 13.8-18.2 16.6-13.6 4.6-27.8 6.6-42 7.8-26.2 2.2-52.4 1-78.4-3.8-28.6-5.4-55.8-14.6-80-31.2-2.8-2-5.6-4.2-7.4-7-1.4-2.2-1.8-5.6-1-8 0.8-3 4.2-3.8 7.2-3.6 1.4 0 3 0 4.4 0.2 15.6 1.6 31 3.4 46.6 5 22.8 2.2 45.8 3.6 68.6 1.8 9.6-0.6 19.4-2.8 28.8-5.4 10.2-2.8 14.8-10.4 15.2-20.8 0.8-16-2.8-31.4-7-46.6-8.2-30.8-20-60.6-31.6-90.2-0.8-2-1.6-4-2-6-1-5.8 2.4-9.6 8.2-8.2 3.4 0.8 7.2 2.6 9.6 5 8.8 8.6 17.8 17.2 25.4 26.8 25.6 32.8 40.6 70.6 49.4 111.2 1.6 7.2 2.8 14.6 4.2 21.8v34.6zM958.2 562.2c-25.8 71.4-51.6 143-77.4 214.4-4 11.4-8.4 22.6-12.6 33.8-2.2 5.8-6.4 9.6-12.8 9.6-15.2 0.2-30.4 0.4-45.8 0.2-5 0-7.4-4-6.4-9 1-4.2 2.2-8.2 3.8-12.2 39.2-97 78.6-194.2 118.2-291 3.4-8.2 4.2-15.2 0.4-23.6-6.6-14.6-11.8-30-18.6-44.6-6-13-16-22.8-30.4-26.6-10.2-2.8-20.4-3.2-30.8-2.2-5 0.4-10 1.6-15 2-6.8 0.4-10.2-2.6-10.4-9.6-0.2-6.6-0.2-13.2 0-19.8 0.2-11 4-16 14.8-17.8 11.2-2 22.6-3.8 33.8-4 34.2-0.8 61.4 13 79 42.8 7 11.8 13.4 24.2 18.4 36.8 47.4 119.6 94.2 239.4 141.2 359.2 1.4 3.6 2.6 7.2 3.2 11 0.8 5.6-1.8 8.8-7.4 8.8-13.2 0.2-26.6 0-39.8 0-7.4 0-12.6-3.2-15.4-10.4-1-2.8-2.2-5.4-3.2-8.2-23.2-66.6-46.4-133.2-69.6-200-5-14.4-10.2-29-15.4-44.4-0.8 2.2-1.2 3.4-1.8 4.8z" />
<glyph unicode="&#xe916;" glyph-name="arrow-alt-to-left" horiz-adv-x="896" d="M0 112v672c0 26.6 21.4 48 48 48h48c26.6 0 48-21.4 48-48v-672c0-26.6-21.4-48-48-48h-48c-26.6 0-48 21.4-48 48zM848 576h-272v175.4c0 35.6-43 53.4-68.2 28.2l-304.4-304.2c-15-15-15-39.6 0-54.6l304.4-304.4c25.2-25.2 68.2-7.4 68.2 28.2v175.4h272c26.6 0 48 21.4 48 48v160c0 26.6-21.4 48-48 48z" />
<glyph unicode="&#xe917;" glyph-name="arrow-alt-to-right" horiz-adv-x="896" d="M896 784v-672c0-26.6-21.4-48-48-48h-48c-26.6 0-48 21.4-48 48v672c0 26.6 21.4 48 48 48h48c26.6 0 48-21.4 48-48zM48 320h272v-175.4c0-35.6 43-53.4 68.2-28.2l304.4 304.4c15 15 15 39.6 0 54.6l-304.4 304.4c-25.2 25.2-68.2 7.4-68.2-28.2v-175.6h-272c-26.6 0-48-21.4-48-48v-160c0-26.6 21.4-48 48-48z" />
<glyph unicode="&#xe918;" glyph-name="android" horiz-adv-x="896" d="M179.2 551v-231.6c0-30.8-24.2-55.4-55-55.4-30.6 0-60.2 24.8-60.2 55.4v231.6c0 30.2 29.6 55 60.2 55 30.2 0 55-24.8 55-55zM200.8 237c0-32.8 26.4-59.2 59.2-59.2h39.8l0.6-122.2c0-73.8 110.4-73.2 110.4 0v122.2h74.4v-122.2c0-73.4 111-73.6 111 0v122.2h40.4c32.4 0 58.8 26.4 58.8 59.2v358.8h-494.6v-358.8zM696.8 615.2h-498.2c0 85.6 51.2 160 127.2 198.8l-38.2 70.6c-5.6 9.8 8.6 16 13.4 7.6l38.8-71.2c69.8 31 150 29.4 216.6 0l38.6 71c5 8.6 19 2.2 13.4-7.6l-38.2-70.4c75.4-38.8 126.6-113.2 126.6-198.8zM355.4 726.2c0 11.4-9.2 21-21 21-11.4 0-20.4-9.6-20.4-21s9.2-21 20.4-21c11.8 0 21 9.6 21 21zM582.2 726.2c0 11.4-9.2 21-20.4 21-11.8 0-21-9.6-21-21s9.2-21 21-21c11.2 0 20.4 9.6 20.4 21zM771.8 606c-30.2 0-55-24.2-55-55v-231.6c0-30.8 24.8-55.4 55-55.4 30.8 0 60.2 24.8 60.2 55.4v231.6c0 30.8-29.6 55-60.2 55z" />
<glyph unicode="&#xe919;" glyph-name="arrow-alt-up" horiz-adv-x="896" d="M544 0h-192c-26.6 0-48 21.4-48 48v400h-207.6c-42.8 0-64.2 51.6-34 82l351.6 352c18.8 18.8 49.2 18.8 68 0l351.6-352c30.2-30.2 8.8-82-34-82h-207.6v-400c0-26.6-21.4-48-48-48z" />
<glyph unicode="&#xe91a;" glyph-name="like" d="M901.354 571.897c17.159 30.608 11.137 68.613-14.637 92.416-7.429 6.863-10.814 17.286-8.836 27.201 6.858 34.409-10.611 68.693-42.481 83.371-9.184 4.228-15.626 13.094-16.811 23.139-4.113 34.848-31.321 62.054-66.163 66.162-10.041 1.185-18.907 7.626-23.139 16.812-12.298 26.701-39.171 43.955-68.464 43.955-4.976 0-9.989-0.497-14.905-1.476-1.837-0.366-3.73-0.552-5.617-0.552-8.2 0-16.069 3.422-21.581 9.39-14.284 15.465-34.488 24.335-55.43 24.335-12.877 0-25.669-3.353-36.984-9.696-8.64-4.842-19.963-4.844-28.602 0-11.321 6.345-24.111 9.696-36.986 9.696-20.94 0-41.144-8.87-55.432-24.335-5.513-5.968-13.379-9.392-21.578-9.392-1.887 0-3.778 0.186-5.622 0.556-4.916 0.979-9.93 1.476-14.905 1.476-29.291 0-56.166-17.254-68.466-43.957-4.23-9.184-13.093-15.624-23.135-16.809-34.846-4.111-62.054-31.317-66.163-66.163-1.183-10.041-7.625-18.906-16.809-23.135-31.873-14.679-49.339-48.963-42.478-83.371 1.976-9.919-1.411-20.339-8.838-27.2-25.776-23.808-31.796-61.813-14.639-92.419 4.944-8.819 4.944-19.777 0-28.597-17.157-30.608-11.137-68.611 14.639-92.419 7.427-6.862 10.814-17.283 8.838-27.196-6.86-34.408 10.608-68.693 42.478-83.371 9.186-4.232 15.628-13.096 16.811-23.139 3.005-25.469 18.285-47.136 40.652-58.46l-99.408-203.642c-3.577-7.325-3.008-16.103 1.484-22.906 4.295-6.51 11.485-10.396 19.23-10.396 0.435 0 0.872 0.012 1.253 0.033l94.441 4.777 54.336-77.399c4.329-6.164 11.408-9.842 18.937-9.842 0.589 0 1.183 0.025 1.829 0.072 8.127 0.641 15.397 5.592 18.972 12.92l100.678 206.264c13.899-0.545 27.718 2.823 39.876 9.641 8.639 4.839 19.958 4.841 28.6-0.002 11.323-6.345 24.108-9.698 36.986-9.698 1.218 0 2.455 0.033 3.706 0.1l100.7-206.306c3.577-7.329 10.847-12.28 18.956-12.919 0.619-0.052 1.233-0.074 1.847-0.074 7.529 0 14.609 3.678 18.937 9.843l54.339 77.397 94.424-4.775c0.403-0.022 0.803-0.032 1.205-0.032 7.785 0 14.999 3.884 19.292 10.387 4.498 6.805 5.065 15.584 1.486 22.909l-99.569 203.988c21.988 11.428 37.015 32.969 39.981 58.114 1.183 10.039 7.625 18.904 16.811 23.135 31.871 14.677 49.339 48.963 42.479 83.371-1.976 9.915 1.411 20.336 8.838 27.2 25.776 23.808 31.796 61.81 14.636 92.419-4.944 8.819-4.943 19.774 0.002 28.595zM832.487 414.635c2.657-13.324-4.106-26.597-16.446-32.279-23.723-10.926-40.358-33.824-43.416-59.758-1.59-13.491-12.124-24.026-25.617-25.618-25.936-3.060-48.836-19.695-59.76-43.415-4.764-10.344-15.156-17.027-26.475-17.027-1.934 0-3.885 0.194-5.808 0.579-4.777 0.95-9.684 1.434-14.582 1.434-21.139 0-41.428-8.845-55.667-24.261-5.537-5.997-13.354-9.435-21.452-9.435-4.981 0-9.935 1.302-14.329 3.766-11.192 6.269-23.964 9.586-36.933 9.586-12.972 0-25.744-3.313-36.931-9.586-4.394-2.463-9.35-3.765-14.333-3.765-8.095 0-15.914 3.438-21.45 9.434-14.242 15.419-34.533 24.263-55.667 24.263-4.899 0-9.805-0.485-14.584-1.436-1.916-0.383-3.867-0.577-5.799-0.577-11.324 0-21.716 6.681-26.478 17.025-10.926 23.719-33.824 40.356-59.758 43.415-13.491 1.591-24.026 12.127-25.618 25.618-3.059 25.935-19.695 48.834-43.418 59.762-12.338 5.682-19.101 18.954-16.446 32.278 5.107 25.613-3.641 52.53-22.824 70.251-9.981 9.219-12.311 23.933-5.669 35.783 12.772 22.779 12.772 51.085 0 73.867-6.643 11.85-4.314 26.562 5.667 35.781 19.183 17.718 27.929 44.636 22.826 70.251-2.654 13.324 4.109 26.597 16.448 32.279 23.721 10.924 40.358 33.824 43.416 59.758 1.593 13.491 12.127 24.026 25.618 25.618 25.938 3.060 48.837 19.697 59.758 43.418 4.762 10.339 15.154 17.020 26.478 17.020 1.934 0 3.885-0.194 5.803-0.576 4.78-0.954 9.69-1.436 14.589-1.436 21.129 0 41.415 8.845 55.661 24.263 5.538 5.995 13.357 9.435 21.452 9.435 4.981 0 9.935-1.302 14.329-3.766 11.187-6.271 23.957-9.586 36.933-9.586s25.746 3.313 36.934 9.586c4.394 2.465 9.348 3.766 14.328 3.766 8.097 0 15.916-3.438 21.452-9.435 14.246-15.419 34.535-24.261 55.664-24.261 4.899 0 9.807 0.482 14.589 1.434 1.917 0.383 3.87 0.577 5.804 0.577 11.319 0 21.71-6.683 26.473-17.021 10.924-23.721 33.822-40.358 59.76-43.418 13.491-1.591 24.026-12.126 25.617-25.617 3.060-25.938 19.695-48.836 43.418-59.76 12.338-5.682 19.101-18.956 16.444-32.279-5.105-25.615 3.643-52.532 22.828-70.249 9.981-9.218 12.311-23.932 5.67-35.783-12.772-22.786-12.77-51.090-0.003-73.865 6.643-11.851 4.31-26.567-5.669-35.785-19.183-17.719-27.931-44.638-22.826-70.253zM618.715 182.879c5.513 5.968 13.379 9.39 21.583 9.39 1.889 0 3.78-0.184 5.614-0.55 2.692-0.537 5.433-0.929 8.194-1.17l32.517-66.617c3.912-8.013 11.886-12.992 20.81-12.992 3.534 0 6.945 0.791 10.143 2.349 5.555 2.711 9.721 7.424 11.734 13.27 2.011 5.846 1.625 12.126-1.086 17.679l-27.919 57.198c12.589 7.77 22.72 19.162 28.987 32.763 1.429 3.105 3.43 5.943 5.865 8.371l84.219-172.552-67.992 3.438c-7.966 0.433-15.583-3.298-20.155-9.813l-39.145-55.754-81.649 167.277c2.957 2.366 5.726 4.946 8.282 7.713zM289.409 241.999c2.182-2.301 3.984-4.939 5.301-7.799 6.38-13.854 16.735-25.389 29.634-33.163l-27.723-56.799c-5.599-11.468-0.823-25.351 10.647-30.949 3.194-1.559 6.606-2.349 10.141-2.349 8.922 0 16.894 4.978 20.811 12.994l32.554 66.696c2.46 0.246 4.904 0.611 7.314 1.089 1.841 0.37 3.73 0.554 5.62 0.554 8.199 0 16.064-3.423 21.576-9.392 2.744-2.972 5.716-5.716 8.883-8.204l-81.411-166.787-39.145 55.756c-4.33 6.166-11.396 9.847-18.9 9.847-0.412 0-0.823-0.012-1.21-0.033l-68.032-3.442 83.941 171.98zM707.266 679.832h-95.265c7.832 15.375 17.656 36.914 25.891 61.984 8.013 24.362-5.421 50.834-29.944 59.007l-0.937 0.313c-4.767 1.591-9.726 2.398-14.738 2.398-18.111 0-34.891-10.618-42.747-27.051-12.947-27.104-41.852-75.535-90.408-96.653h-6.649c-9.964 10.371-23.719 16.274-38.104 16.274h-65.088c-29.149 0-52.865-23.714-52.865-52.863v-227.812c0-29.149 23.714-52.865 52.865-52.865h65.088c14.385 0 28.142 5.901 38.104 16.272h205.981c29.149 0 52.865 23.716 52.865 52.865 0 7.861-1.754 15.599-5.102 22.643 13.464 9.964 21.37 25.503 21.37 42.446 0 7.857-1.752 15.598-5.098 22.642 13.463 9.964 21.368 25.503 21.368 42.446 0 7.859-1.75 15.596-5.098 22.642 13.466 9.964 21.373 25.505 21.373 42.447 0.003 29.147-23.713 52.865-52.863 52.865zM638.131 594.424c0-11.205 9.114-20.321 20.321-20.321h32.544c6.74 0 12.224-5.485 12.224-12.226s-5.483-12.224-12.224-12.224h-48.819c-11.204 0-20.321-9.116-20.321-20.321s9.116-20.321 20.321-20.321h32.544c6.74 0 12.226-5.485 12.226-12.226s-5.485-12.226-12.226-12.226h-48.814c-11.205 0-20.321-9.116-20.321-20.321s9.114-20.321 20.321-20.321h32.544c6.74 0 12.224-5.485 12.224-12.226s-5.483-12.224-12.224-12.224h-191.219v142.401c0 11.204-9.116 20.321-20.321 20.321s-20.321-9.116-20.321-20.321v-146.45c0-6.74-5.485-12.226-12.226-12.226h-65.086c-6.741 0-12.226 5.485-12.226 12.226v227.825c0 6.741 5.485 12.226 12.226 12.226h65.086c6.741 0 12.226-5.485 12.226-12.226v-16.27c0-11.205 9.116-20.321 20.321-20.321s20.321 9.116 20.321 20.321v12.628c1.19 0.243 2.361 0.592 3.5 1.049 63.406 25.362 99.559 85.017 115.466 118.319 1.139 2.386 3.514 3.929 6.044 3.929 0.654 0 1.297-0.105 1.906-0.306l0.945-0.316c3.355-1.118 5.237-4.601 4.198-7.769-15.929-48.456-38.879-83.381-39.103-83.72-4.166-6.244-4.556-14.237-1.012-20.861 3.542-6.621 10.409-10.734 17.917-10.734h130.18c6.74 0 12.226-5.483 12.226-12.224s-5.486-12.223-12.231-12.223h-48.816c-11.207 0.002-20.321-9.112-20.321-20.318zM399 447.965c0-8.284-6.716-15-15-15s-15 6.716-15 15c0 8.284 6.716 15 15 15s15-6.716 15-15z" />
<glyph unicode="&#xe91b;" glyph-name="money" horiz-adv-x="1011" d="M167.949 55.271c-3.67 3.675-8.763 5.786-13.956 5.786s-10.286-2.111-13.958-5.786c-3.672-3.673-5.784-8.765-5.784-13.956s2.111-10.286 5.784-13.956c3.672-3.672 8.765-5.786 13.958-5.786s10.286 2.111 13.956 5.786c3.673 3.672 5.786 8.765 5.786 13.956s-2.112 10.285-5.786 13.956zM926.931 592.239c-3.672 3.675-8.745 5.784-13.956 5.784-5.193 0-10.286-2.109-13.958-5.784-3.67-3.673-5.784-8.765-5.784-13.958s2.111-10.286 5.784-13.954c3.673-3.673 8.767-5.787 13.958-5.787 5.211 0 10.286 2.112 13.956 5.787 3.69 3.67 5.804 8.763 5.804 13.954-0.002 5.193-2.114 10.285-5.804 13.958zM1004.993 947.611c-3.705 3.701-8.727 5.782-13.964 5.782l-485.64-0.026c-10.902 0-19.74-8.841-19.74-19.742v-56.455l-187.133-50.143c-10.532-2.823-16.782-13.647-13.959-24.178l96.986-361.953-83.9-83.902c-10.679 15.591-28.608 25.846-48.889 25.846h-189.514c-32.657 0-59.224-26.569-59.224-59.224v-321.785c-0.002-32.656 26.566-59.225 59.224-59.225h189.519c27.744 0 51.083 19.18 57.478 44.972l23.473-20.472c18.121-15.801 41.338-24.503 65.381-24.503h595.945c10.902 0 19.742 8.841 19.742 19.742v971.307c-0.005 5.236-2.081 10.258-5.782 13.959zM268.494 1.83c0-10.884-8.856-19.742-19.742-19.742h-189.518c-10.886 0-19.742 8.856-19.742 19.742v321.785c0 10.886 8.856 19.742 19.742 19.742h75.018v-227.417c0-10.902 8.841-19.742 19.742-19.742s19.742 8.841 19.742 19.742v227.419h75.016c10.886 0 19.742-8.856 19.742-19.742v-321.787zM327.806 794l157.845 42.295v-73.153l-13.231-3.544c-5.059-1.356-9.37-4.663-11.987-9.198s-3.33-9.921-1.972-14.98c7.588-28.312-9.274-57.516-37.586-65.103-5.064-1.358-9.381-4.671-11.997-9.216-2.615-4.542-3.32-9.941-1.952-15.002l76.952-284.951h-39.622l-20.419 79.884c-0.651 2.543-1.787 4.885-3.308 6.924l-92.722 346.046zM485.65 672.606v-166.585l-36.008 133.326c15.043 7.768 27.351 19.388 36.008 33.259zM769.272-17.91h-374.186c-14.501 0-28.504 5.247-39.432 14.777l-47.675 41.578v273.045l86.189 86.189 15.631-61.159c2.235-8.74 10.106-14.851 19.126-14.851l388.134-0.025c15.241 0 27.638-12.399 27.638-27.638s-12.399-27.638-27.638-27.638h-198.879c-10.902 0-19.742-8.841-19.742-19.742s8.841-19.742 19.742-19.742h260.672c15.241 0 27.638-12.399 27.638-27.638s-12.399-27.638-27.638-27.638h-260.672c-10.902 0-19.742-8.841-19.742-19.742s8.841-19.742 19.742-19.742h218.431c15.241 0 27.638-12.399 27.638-27.638s-12.399-27.638-27.638-27.638h-218.431c-10.902 0-19.742-8.841-19.742-19.742s8.841-19.742 19.742-19.742h151.091c15.241 0 27.638-12.399 27.638-27.638-0.002-15.238-12.399-27.636-27.636-27.636zM971.292-17.91h-140.879c3.827 8.435 5.977 17.788 5.977 27.638s-2.15 19.203-5.977 27.638h6.197c37.009 0 67.122 30.109 67.122 67.122 0 10.795-2.577 20.995-7.125 30.040 28.421 7.807 49.367 33.856 49.367 64.72 0 14.97-4.932 28.812-13.249 39.987v250.209c0 10.902-8.841 19.742-19.742 19.742s-19.742-8.841-19.742-19.742v-224.647c-4.639 1.016-9.451 1.569-14.389 1.569h-0.649c3.827 8.435 5.977 17.788 5.977 27.638 0 37.013-30.109 67.122-67.12 67.122h-31.736c33.696 14.452 57.364 47.945 57.364 86.875 0 52.097-42.382 94.481-94.479 94.481-52.095 0-94.479-42.384-94.479-94.481 0-38.929 23.668-72.423 57.362-86.875h-107.915v375.377c35.269 7.687 63.095 35.511 70.778 70.782h148.5c7.683-35.269 35.513-63.095 70.778-70.782v-61.377c0-10.902 8.841-19.742 19.742-19.742s19.742 8.841 19.742 19.742v79.003c0 10.902-8.841 19.742-19.742 19.742-29.311 0-53.154 23.846-53.154 53.156 0 10.901-8.841 19.742-19.742 19.742h-183.747c-10.902 0-19.742-8.841-19.742-19.742 0-29.311-23.844-53.156-53.154-53.156-10.902 0-19.742-8.841-19.742-19.742v-393.001h-38.56v552.762l446.157 0.021v-931.82zM748.212 393.003c-30.325 0-54.995 24.672-54.995 54.995s24.672 54.997 54.995 54.997 54.994-24.672 54.994-54.995c0-30.324-24.668-54.997-54.994-54.997z" />
<glyph unicode="&#xe91c;" glyph-name="money-note" d="M479.85 413.733c-1.583 0.184-3.188 0.182-4.779 0.002-11.98 1.22-21.28 11.431-21.296 23.534 0 12.512-10.179 22.691-22.691 22.691s-22.691-10.179-22.691-22.701c0.041-29.549 18.846-55.622 46.374-65.228v-8.076c0-12.51 10.179-22.689 22.691-22.689s22.691 10.179 22.691 22.689v8.068c30.516 10.617 49.972 41.454 45.817 73.979-4.392 34.39-33.845 60.322-68.508 60.322-13.059 0-23.683 10.626-23.683 23.685 0 13.057 10.623 23.681 23.674 23.681 13.049-0.012 23.676-10.64 23.689-23.683 0-12.512 10.181-22.691 22.693-22.691 12.514 0 22.693 10.179 22.693 22.699-0.041 30.553-19.636 56.867-48.32 65.856v9.136c0 12.51-10.179 22.691-22.691 22.691s-22.691-10.179-22.691-22.691v-10.495c-29.755-11.388-48.33-42.416-43.72-74.373 4.869-33.749 34.255-59.2 68.353-59.2 12.802 0 23.195-10.020 23.658-22.809 0.457-12.561-8.833-23.148-21.263-24.396zM477.457 283.864c109.554 0 198.68 89.125 198.68 198.685-0.124 109.421-89.247 198.544-198.68 198.67-109.548 0-198.672-89.127-198.672-198.678 0-109.55 89.125-198.676 198.672-198.676zM324.167 482.541c0 84.527 68.765 153.296 153.29 153.296 84.529 0 153.298-68.767 153.298-153.288-0.094-84.433-68.867-153.202-153.298-153.298-84.525 0-153.29 68.765-153.29 153.29zM1006.704 671.977c-4.102 4.235-9.822 6.664-15.709 6.664l-47.226-0.002v35.54c0.249 5.971-1.989 11.837-6.146 16.119-4.102 4.233-9.826 6.66-15.715 6.66h-888.899c-5.873 0-11.599-2.423-15.711-6.66-4.151-4.288-6.385-10.15-6.146-16.115v-463.287c-0.239-5.956 1.995-11.817 6.146-16.107 4.104-4.235 9.84-6.666 15.739-6.666h36.434v-46.306c-0.239-5.96 1.995-11.817 6.148-16.107 4.102-4.237 9.836-6.666 15.731-6.666h899.625c5.905 0 11.637 2.429 15.725 6.658 4.169 4.294 6.403 10.158 6.154 16.123v474.028c0.243 5.969-1.989 11.837-6.15 16.123zM897.595 690.786v-75.288c-36.638 8.896-65.787 38.329-74.552 75.288h74.552zM57.322 690.786h74.878c-8.841-36.546-38.61-66.495-74.878-75.342v75.342zM57.322 568.385c62.127 9.963 111.967 59.988 121.931 122.399h596.764c9.936-62.276 59.629-112.273 121.583-122.339v-171.102h-0.002c-62.403-10.024-112.279-60.318-122.019-123.047h-596.039c-9.757 62.817-59.714 113.123-122.217 123.076v171.014zM897.595 350.283v-75.988h-74.997c8.669 36.84 38.5 67.060 74.997 75.988zM57.322 274.295v76.021c37.233-8.953 66.664-38.694 75.227-76.021h-75.227zM966.678 205.216h-851.038v22.907h806.243c5.909 0 11.652 2.429 15.735 6.662 4.163 4.292 6.401 10.156 6.152 16.119v381.562h22.909v-427.251z" />
<glyph unicode="&#xe91d;" glyph-name="payment-security" d="M896.86 850.040h-843.026c-29.683 0-53.834-24.151-53.834-53.835v-549.798c0-29.684 24.151-53.835 53.834-53.835h586.452c9.489 0 17.182 7.693 17.182 17.184s-7.692 17.182-17.182 17.182h-586.452c-10.737 0-19.473 8.734-19.473 19.473v549.794c0 10.739 8.734 19.473 19.473 19.473h843.025c10.739 0 19.473-8.734 19.473-19.473v-238.251c0-9.487 7.693-17.182 17.184-17.182 9.487 0 17.182 7.692 17.182 17.182v238.251c-0.003 29.684-24.153 53.835-53.837 53.835zM292.079 721.754h-146.611c-19.58 0-35.509-15.929-35.509-35.509v-109.96c0-19.58 15.929-35.509 35.509-35.509h146.614c19.58 0 35.509 15.929 35.509 35.509v109.96c-0.003 19.58-15.931 35.509-35.512 35.509zM183.266 575.14h-37.798c-0.632 0-1.146 0.514-1.146 1.146v109.96c0 0.632 0.514 1.146 1.146 1.146h37.798v-112.252zM293.227 576.286c0-0.632-0.514-1.146-1.146-1.146h-74.452v38.944h19.471c9.489 0 17.182 7.692 17.182 17.182 0 9.489-7.692 17.182-17.182 17.182h-19.471v38.944h74.452c0.632 0 1.146-0.514 1.146-1.146v-109.96zM741.082 740.079c-20.289 0-39.173-6.111-54.933-16.566-16.227 10.754-35.336 16.566-55.027 16.566-54.95 0-99.653-44.705-99.653-99.653s44.703-99.653 99.653-99.653c20.296 0 39.185 6.114 54.951 16.576 16.228-10.744 35.363-16.576 55.008-16.576 54.948 0 99.653 44.705 99.653 99.653s-44.705 99.653-99.653 99.653zM660.341 582.070c-8.799-4.424-18.718-6.93-29.219-6.93-36.001 0-65.29 29.288-65.29 65.288s29.289 65.288 65.29 65.288c10.245 0 20.247-2.413 29.258-6.932-11.907-16.417-18.951-36.575-18.951-58.356 0.002-21.184 6.743-41.527 18.912-58.358zM741.082 575.14c-10.227 0-20.241 2.421-29.254 6.937 11.903 16.416 18.947 36.57 18.947 58.353 0 9.487-7.693 17.182-17.184 17.182-9.487 0-17.182-7.692-17.182-17.182 0-12.937-3.798-25.003-10.319-35.159-6.648 10.392-10.299 22.546-10.299 35.159 0 36.001 29.288 65.288 65.288 65.288s65.288-29.288 65.288-65.288-29.284-65.29-65.287-65.29zM273.754 446.854h-146.614c-9.487 0-17.182-7.693-17.182-17.184 0-9.487 7.692-17.182 17.182-17.182h146.613c9.489 0 17.182 7.692 17.182 17.182 0.002 9.492-7.693 17.184-17.18 17.184zM658.614 336.894h-531.474c-9.487 0-17.182-7.692-17.182-17.182s7.692-17.184 17.182-17.184h531.473c9.487 0 17.182 7.693 17.182 17.184s-7.693 17.182-17.18 17.182zM493.673 446.854h-146.614c-9.487 0-17.182-7.693-17.182-17.184 0-9.487 7.692-17.182 17.182-17.182h146.613c9.489 0 17.182 7.692 17.182 17.182s-7.692 17.184-17.18 17.184zM676.939 446.854h-109.96c-9.489 0-17.184-7.693-17.184-17.184 0-9.487 7.693-17.182 17.184-17.182h109.96c9.489 0 17.184 7.692 17.184 17.182-0.003 9.492-7.695 17.184-17.184 17.184zM987.347 315.742v77.279c0 70.106-57.034 127.14-127.14 127.14s-127.14-57.034-127.14-127.14v-77.279c-21.281-7.188-36.653-27.33-36.653-51.008v-164.939c0-29.684 24.151-53.834 53.835-53.834h219.921c29.683 0 53.834 24.149 53.834 53.834v164.939c-0.003 23.677-15.375 43.818-36.657 51.008zM767.428 393.020c0 51.158 41.619 92.779 92.777 92.779s92.777-41.621 92.777-92.779v-74.451h-185.556l0.002 74.451zM989.637 99.795c0-10.739-8.734-19.473-19.471-19.473h-219.919c-10.739 0-19.473 8.734-19.473 19.473v164.939c0 10.739 8.734 19.473 19.473 19.473h219.921c10.737 0 19.471-8.734 19.471-19.473v-164.939zM860.205 245.261c-24.631 0-44.671-20.040-44.671-44.671 0-18.546 11.361-34.48 27.491-41.226v-22.918c0-9.489 7.692-17.182 17.182-17.182s17.182 7.692 17.182 17.182v22.918c16.13 6.745 27.491 22.68 27.491 41.226-0.003 24.631-20.043 44.671-44.675 44.671zM860.205 190.283c-5.684 0-10.307 4.626-10.307 10.307 0 5.684 4.626 10.309 10.307 10.309s10.309-4.628 10.309-10.309-4.623-10.307-10.309-10.307z" />
<glyph unicode="&#xe91e;" glyph-name="phone-call-r" d="M640 448c0 70-58 128-128 128v86c118 0 214-96 214-214h-86zM810 448c0 166-132 298-298 298v86c212 0 384-172 384-384h-86zM854 298c24 0 42-18 42-42v-150c0-24-18-42-42-42-400 0-726 326-726 726 0 24 18 42 42 42h150c24 0 42-18 42-42 0-54 8-104 24-152 4-14 2-32-10-44l-94-94c62-122 162-220 282-282l94 94c12 12 30 14 44 10 48-16 98-24 152-24z" />
<glyph unicode="&#xe91f;" glyph-name="phone-call-l" d="M870.4 366.933c-38.4 4.267-76.8 12.8-110.933 25.6-46.933 17.067-98.133 4.267-136.533-29.867l-29.867-29.867c-76.8 51.2-145.067 115.2-196.267 196.267l29.867 29.867c34.133 34.133 46.933 89.6 29.867 136.533-12.8 34.133-21.333 72.533-25.6 110.933-8.533 64-64 110.933-128 110.933 0 0 0 0 0 0h-128c-4.267 0-8.533 0-12.8 0-34.133-4.267-64-21.333-85.333-46.933s-29.867-59.733-29.867-93.867c12.8-136.533 64-273.067 136.533-388.267 68.267-106.667 162.133-200.533 268.8-268.8 115.2-76.8 251.733-123.733 388.267-136.533 4.267 0 8.533 0 12.8 0 0 0 0 0 0 0 34.133 0 68.267 12.8 89.6 38.4s38.4 55.467 38.4 89.6v128c0 64-46.933 119.467-110.933 128zM896 238.933v-128c0-12.8-4.267-21.333-12.8-29.867s-17.067-12.8-34.133-12.8c-123.733 12.8-243.2 55.467-349.867 123.733-98.133 59.733-179.2 145.067-243.2 243.2-68.267 106.667-110.933 226.133-123.733 349.867 0 12.8 4.267 21.333 8.533 29.867 8.533 8.533 21.333 17.067 34.133 17.067h128c0 0 0 0 0 0 21.333 0 38.4-17.067 42.667-38.4 4.267-42.667 17.067-89.6 34.133-128 4.267-17.067 0-34.133-8.533-46.933l-55.467-51.2c-12.8-12.8-17.067-34.133-8.533-51.2 64-115.2 157.867-209.067 273.067-273.067 17.067-8.533 38.4-8.533 51.2 8.533l55.467 55.467c12.8 12.8 29.867 17.067 46.933 8.533 42.667-17.067 85.333-25.6 128-34.133 17.067-4.267 34.133-21.333 34.133-42.667 0 0 0 0 0 0zM648.533 960c-21.333 4.267-42.667-12.8-46.933-38.4-4.267-21.333 12.8-42.667 38.4-46.933 157.867-17.067 281.6-140.8 302.933-302.933 4.267-21.333 21.333-38.4 42.667-38.4 0 0 4.267 0 4.267 0 21.333 4.267 38.4 25.6 38.4 46.933-25.6 200.533-183.467 358.4-379.733 379.733zM768 571.733c4.267-21.333 21.333-34.133 42.667-34.133 4.267 0 4.267 0 8.533 0 21.333 4.267 38.4 25.6 34.133 51.2-21.333 102.4-98.133 183.467-200.533 200.533-21.333 4.267-46.933-8.533-51.2-34.133s8.533-46.933 34.133-51.2c68.267-12.8 119.467-64 132.267-132.267z" />
<glyph unicode="&#xe920;" glyph-name="phone-tel" d="M512 960c-182.4 0-365.226-32.64-431.574-97.706-55.040-53.974-73.386-149.334-79.574-209.706 0 0-0.854-5.974-0.854-8.534 0-23.68 19.2-42.666 42.666-42.666 2.774 0 105.386 8.32 167.254 13.44 1.494 0.214 2.986 0.426 4.48 0.854 23.040 0.64 41.6 19.414 41.6 42.666l0.214 84.054c0.002 26.024 21.122 46.932 47.148 46.932h417.258c26.048 0 47.168-20.908 47.168-46.934l0.214-84.054c0-23.254 18.56-42.026 41.6-42.666 1.472-0.426 2.986-0.64 4.48-0.854 61.866-5.12 164.48-13.44 167.254-13.44 23.466 0 42.666 18.986 42.666 42.666 0 2.56-0.854 8.534-0.854 8.534-6.186 60.374-24.512 155.734-79.552 209.706-66.368 65.068-249.194 97.708-431.594 97.708zM512 405.334c-47.146 0-85.334-38.186-85.334-85.334s38.186-85.334 85.334-85.334 85.334 38.186 85.334 85.334-38.188 85.334-85.334 85.334zM448 597.334v53.334c0 29.44-23.894 53.334-53.334 53.334s-53.332-23.896-53.332-53.336v-53.332l-287.788-307.414c-19.84-19.414-32.212-46.506-32.212-76.374v-85.546c0-47.146 38.186-85.334 85.334-85.334h21.334v-53.334c-0.002-29.438 23.892-53.332 53.332-53.332s53.334 23.894 53.334 53.334l-0.002 53.332h554.666v-53.334c0-29.44 23.894-53.334 53.334-53.334s53.334 23.894 53.334 53.334v53.334h21.334c47.146 0 85.334 38.186 85.334 85.334v85.546c0 29.866-12.374 56.96-32.214 76.374l-287.788 307.414v53.334c0 29.44-23.894 53.334-53.334 53.334s-53.332-23.896-53.332-53.336v-53.332h-128zM512 490.666c94.294 0 170.666-76.374 170.666-170.666s-76.374-170.666-170.666-170.666-170.666 76.374-170.666 170.666 76.372 170.666 170.666 170.666z" />
<glyph unicode="&#xe921;" glyph-name="shield-check-r" d="M932.922 792.616l-384 160c-10.906 4.67-23.598 7.385-36.923 7.385s-26.017-2.715-37.551-7.622l0.628 0.237-384-160c-34.986-14.855-59.076-48.921-59.076-88.615 0 0 0-0.001 0-0.001v0c0-396.974 228.99-671.426 443.078-760.616 10.906-4.67 23.598-7.385 36.923-7.385s26.017 2.715 37.551 7.622l-0.628-0.237c171.208 71.326 443.076 318.052 443.076 760.616 0 0 0 0 0 0 0 39.694-24.091 73.762-58.45 88.378l-0.628 0.237zM511.996 32.002c-195.094 81.276-383.996 333.442-383.996 671.998l383.998 160 384.002-160c0-347.608-196.796-594.034-384.004-671.998zM807.64 579.448l-345.176-342.408c-9.41-9.334-24.606-9.274-33.94 0.136l-181.562 183.032c-9.334 9.41-9.274 24.606 0.138 33.942l45.436 45.072c9.41 9.334 24.606 9.274 33.94-0.138l119.584-120.554 282.704 280.43c9.41 9.334 24.606 9.274 33.94-0.136l45.072-45.436c9.336-9.41 9.274-24.606-0.136-33.94z" />
<glyph unicode="&#xe922;" glyph-name="apple" horiz-adv-x="896" d="M494.4 684.8c-12.4-3.8-30.6-7-55.8-9.2 2.2 113.4 59.8 193.2 176 220.2 18.6-83.2-52.2-188.2-120.2-211zM737 539.4c12.8 18.8 33.2 39.8 61.2 63.4-44.6 55.2-96.2 88.6-170.2 88.6-70.8 0-130.4-36.4-174-36.4-37 0-103.8 32.2-169 32.2-139.2 0-213-136.2-213-278 0-157.6 119.4-409.2 240.4-409.2 47.6 0 90.4 36 147 36 58.6 0 105.6-34.4 160.6-34.4 92 0 177.2 155 204 239.4-93.6 28.6-168.8 180.4-87 298.4z" />
<glyph unicode="&#xe923;" glyph-name="phone-24" d="M942.534 865.096h-86.336c-13.84 0-25.1-11.26-25.1-25.102 0-13.844 11.26-25.11 25.1-25.11h86.336c12.346 0 22.39-10.042 22.39-22.39v-222.844c0-12.346-10.044-22.39-22.39-22.39h-341.408c-6.696 0-12.996-2.608-17.754-7.352l-66.16-66.16v48.404c0 13.844-11.26 25.108-25.102 25.108h-27.804c-12.346 0-22.39 10.044-22.39 22.39v222.846c0 12.346 10.044 22.39 22.39 22.39h330.616c13.846 0 25.11 11.264 25.11 25.11 0 13.84-11.264 25.102-25.11 25.102h-330.616c-40.032 0-72.6-32.568-72.6-72.6v-222.844c0-40.032 32.57-72.598 72.6-72.598h2.704v-83.908c0-10.188 6.082-19.292 15.506-23.2 3.068-1.268 6.296-1.91 9.594-1.91 6.694 0 12.996 2.608 17.756 7.354l101.656 101.664h331.012c40.034 0 72.6 32.568 72.6 72.598v222.842c-0.002 40.032-32.568 72.6-72.6 72.6zM547.194 667.31c17.312 11.848 38.864 26.604 38.864 51.83 0 11.966-4.85 22.168-14.012 29.496-8.104 6.488-19.274 10.208-30.646 10.208-21.002 0-43.32-12.914-43.32-36.84 0-10.554 4.444-15.688 13.584-15.688 10.314 0 15.876 5.728 15.876 11.11 0 8.93 5.12 14.056 14.048 14.056 10.518 0 14.244-7.164 14.244-13.29 0-11.344-13.372-21.16-27.534-31.556-15.982-11.726-32.502-23.858-32.502-39.734v-18.492c0-5.734 7.818-9.396 13.2-9.396h67.862c4.902 0 9.202 6.262 9.202 13.402 0 6.93-4.298 13.012-9.202 13.012h-49.702v1.474c-0.002 6.69 9.29 13.042 20.038 20.408zM666.824 619.022c10.38 0 15.11 4.864 15.11 9.388v19.966h7.952c4.744 0 9.396 6.916 9.396 13.966 0 9.598-4.872 13.964-9.396 13.964h-7.952v13.102c0 4.24-3.956 9.2-15.11 9.2s-15.11-4.954-15.11-9.2v-13.102h-15.756l33.562 67.328c0.514 1.18 0.978 2.444 0.978 3.722 0 3.112-1.992 6.096-5.616 8.404-2.954 1.87-6.674 3.082-9.494 3.082-5.546 0-10.020-2.75-12.606-7.756l-44.034-86.338c-1.352-2.482-1.554-4.722-1.554-5.834 0-6.306 4.088-10.538 10.162-10.538h44.356v-19.958c0.002-4.532 4.732-9.396 15.112-9.396zM780.78 761.752l-66.9-137.422c-0.624-1.248-0.984-2.6-0.984-3.728 0-5 4.39-10.35 10.922-10.35 3.834 0 7.45 2.022 8.794 4.9l67.094 137.43c0.654 1.308 0.792 2.75 0.792 3.728 0 6.196-5.94 10.352-11.492 10.352-3.762-0.002-6.76-1.79-8.226-4.91zM833.966 638.25c-0.94-1.7-1.36-3.264-1.36-5.076 0-9.012 10.072-15.296 19.116-15.296 4.298 0 7.118 1.344 8.6 4.134l44.606 85.392c1.436 2.69 6.126 11.974 6.126 18.22v23.828c0 4.096-6.404 9.388-13.208 9.388h-67.668c-6.658 0-13.206-4.654-13.206-9.388v-29.548c0-5.178 6.698-9.396 14.922-9.396 8.296 0 15.302 4.3 15.302 9.396v12.53h33.63v-13.034l-46.86-81.15zM630.602 355.094c-9.574 9.576-22.31 14.85-35.864 14.85-13.55 0-26.29-5.274-35.864-14.85l-83.812-83.808c-3.372 1.736-6.67 3.422-9.912 5.074-27.998 14.292-50.11 25.578-78.13 49.208-4.522 3.81-10.264 5.908-16.17 5.908-7.418 0-14.416-3.25-19.204-8.922-8.916-10.578-7.566-26.446 3.012-35.372 34.21-28.842 61.892-42.792 93.946-58.944 6.326-3.19 12.854-6.478 19.68-10.006 3.548-1.834 7.532-2.804 11.522-2.804 6.708 0 13.012 2.612 17.752 7.352l40.592 40.584 142.598-142.598c-34.464-25.966-78.494-39.63-128.108-39.632-19.228 0-39.386 2.044-59.918 6.084-90.44 17.788-186.36 73.696-270.090 157.422-83.736 83.736-139.646 179.66-157.432 270.098-14.506 73.794-2.586 140.042 33.542 188.024l142.618-142.61-40.604-40.598c-7.766-7.766-9.59-19.536-4.542-29.286 3.374-6.524 6.588-12.846 9.724-19.020 23.65-46.534 44.074-86.718 97.182-139.83 4.744-4.734 11.046-7.344 17.75-7.344 6.706 0 13.008 2.61 17.75 7.35 4.744 4.742 7.356 11.046 7.356 17.754s-2.614 13.014-7.356 17.748c-45.924 45.922-63.072 79.18-84.782 121.29-1.5 2.904-3.018 5.85-4.566 8.842l83.806 83.814c9.582 9.574 14.86 22.312 14.86 35.868s-5.278 26.294-14.856 35.864l-143.126 143.128c-9.578 9.586-22.316 14.868-35.868 14.868-13.546 0-26.284-5.276-35.864-14.854l-38.478-38.48c-61.112-61.112-83.774-150.682-63.812-252.212 19.688-100.114 80.486-205.206 171.196-295.914 90.712-90.71 195.802-151.506 295.91-171.184 23.79-4.68 47.25-7.052 69.726-7.052h0.12c72.948 0 136.008 24.506 182.366 70.868l38.472 38.468c9.58 9.58 14.854 22.316 14.854 35.864 0 13.556-5.276 26.294-14.856 35.864l-143.12 143.126zM297.59 616.378l-20.722-20.724-143.862 143.864 20.724 20.724c0.234 0.23 0.532 0.186 0.72-0.002l143.142-143.142c0.108-0.108 0.148-0.206 0.148-0.36-0.002-0.156-0.038-0.25-0.15-0.36zM595.1 319.594l143.12-143.116c0.198-0.2 0.202-0.542 0.008-0.734l-20.73-20.724-143.84 143.85 20.736 20.738c0.158 0.154 0.47 0.216 0.706-0.014zM552.766 41.41v0 0 0z" />
<glyph unicode="&#xe924;" glyph-name="recommended" d="M784.653 507.857c0 32.418-26.371 58.788-58.79 58.788h-108.044c26.249 29.505 43.405 63.103 46.719 93.246 2.025 18.41-3.663 36.683-15.609 50.138-10.918 12.298-25.848 19.151-42.039 19.302-0.187 0.002-0.376 0.002-0.562 0.002-15.661 0-30.362-6.032-41.455-17.023-11.097-10.995-17.237-25.64-17.309-41.271-0.571-3.422-6.589-15.219-21.32-29.228-12.059-11.471-32.892-27.241-63.65-37.229-12.060-3.915-23.082-11.125-32.758-21.43-5.078-5.403-12.681-12.867-22.096-20.36-4.62 2.448-9.874 3.848-15.455 3.848h-102.614c-18.271 0-33.136-14.865-33.136-33.136v-273.637c0-18.271 14.863-33.136 33.136-33.136h102.614c12.455 0 23.318 6.917 28.978 17.103h261.846c27.703 0 50.238 22.536 50.238 50.236 0 9.313-2.545 18.042-6.982 25.531 14.433 8.835 24.084 24.752 24.084 42.879 0 9.313-2.545 18.042-6.982 25.531 14.435 8.835 24.086 24.752 24.086 42.879 0 10.484-3.229 20.227-8.742 28.292 15.584 10.588 25.844 28.456 25.844 48.673zM725.864 481.136h-8.552c-8.855 0-16.034-7.178-16.034-16.034s7.178-16.034 16.034-16.034c10.019 0 18.171-8.152 18.171-18.173 0-10.019-8.152-18.171-18.171-18.171h-17.102c-8.855 0-16.034-7.178-16.034-16.034 0-8.853 7.178-16.034 16.034-16.034 10.019 0 18.171-8.152 18.171-18.171s-8.152-18.171-18.171-18.171h-17.103c-8.855 0-16.034-7.178-16.034-16.034 0-8.853 7.178-16.034 16.034-16.034 10.019 0 18.171-8.152 18.171-18.171s-8.152-18.171-18.171-18.171h-257.687v154.99c0 8.853-7.178 16.034-16.034 16.034s-16.034-7.178-16.034-16.034v-171.023c0-0.591-0.479-1.068-1.068-1.068h-102.614c-0.591 0-1.068 0.477-1.068 1.068v273.642c0 0.591 0.479 1.068 1.068 1.068h102.614c0.591 0 1.068-0.479 1.068-1.068v-34.205c0-8.855 7.178-16.034 16.034-16.034s16.034 7.178 16.034 16.034v34.205c0 0.778-0.064 1.539-0.117 2.304 12.022 9.306 21.636 18.715 27.907 25.389 5.933 6.321 12.422 10.655 19.284 12.88 37.739 12.253 63.138 31.98 77.797 46.373 18.37 18.037 29.336 36.842 29.336 50.303 0 7.111 2.774 13.777 7.812 18.77 5.1 5.055 11.855 7.724 19.151 7.735 8.988-0.084 14.942-4.682 18.355-8.527 5.851-6.589 8.732-16.066 7.713-25.344-3.502-31.859-28.98-71.238-64.909-100.322-5.277-4.275-7.29-11.41-5.026-17.813 2.266-6.402 8.323-10.682 15.114-10.682h148.020c14.738 0 26.723-11.987 26.723-26.723s-11.983-26.721-26.718-26.721zM340.979 327.387c-8.855 0-16.118-7.263-16.118-16.118 0-8.853 7.263-16.118 16.118-16.118s16.118 7.265 16.118 16.118c0.002 8.853-7.262 16.118-16.118 16.118zM995.42 448l27.544 72.886c2.006 5.302 1.061 11.267-2.486 15.695l-48.717 60.808 3.671 77.831c0.268 5.66-2.475 11.046-7.212 14.155l-65.124 42.777-20.557 75.155c-1.496 5.468-5.768 9.74-11.234 11.234l-75.155 20.557-42.777 65.121c-3.112 4.739-8.497 7.469-14.157 7.213l-77.831-3.673-60.808 48.719c-4.426 3.544-10.391 4.491-15.695 2.486l-72.886-27.544-72.881 27.543c-5.306 2.006-11.269 1.059-15.693-2.486l-60.808-48.719-77.831 3.671c-5.687 0.268-11.046-2.475-14.155-7.212l-42.775-65.124-75.157-20.555c-5.468-1.496-9.74-5.768-11.234-11.234l-20.557-75.155-65.124-42.775c-4.739-3.112-7.479-8.497-7.212-14.155l3.671-77.831-48.717-60.809c-3.544-4.426-4.489-10.391-2.485-15.695l27.541-72.883-27.544-72.885c-2.006-5.302-1.059-11.267 2.486-15.695l48.719-60.808-3.673-77.831c-0.268-5.66 2.476-11.046 7.213-14.157l65.123-42.777 20.557-75.155c1.496-5.47 5.768-9.74 11.234-11.234l75.155-20.557 42.775-65.124c3.112-4.737 8.507-7.461 14.155-7.212l77.831 3.671 60.808-48.719c4.424-3.546 10.392-4.493 15.695-2.485l72.886 27.546 72.886-27.544c1.841-0.694 3.758-1.034 5.667-1.034 3.591 0 7.138 1.206 10.026 3.52l60.808 48.719 77.831-3.671c5.679-0.253 11.045 2.475 14.157 7.212l42.777 65.124 75.155 20.557c5.47 1.496 9.74 5.768 11.234 11.234l20.557 75.155 65.124 42.777c4.737 3.112 7.479 8.497 7.212 14.157l-3.671 77.831 48.719 60.808c3.544 4.426 4.489 10.391 2.485 15.695l-27.546 72.881zM963.283 442.331l26.452-69.998-46.788-58.396c-2.443-3.045-3.688-6.88-3.505-10.78l3.529-74.745-62.543-41.082c-3.261-2.142-5.634-5.404-6.663-9.172l-19.744-72.179-72.177-19.742c-3.766-1.029-7.026-3.398-9.172-6.663l-41.082-62.543-74.745 3.527c-3.904 0.181-7.735-1.061-10.78-3.504l-58.396-46.788-69.998 26.452c-1.827 0.691-3.748 1.034-5.669 1.034s-3.842-0.346-5.669-1.034l-69.997-26.452-58.398 46.788c-3.047 2.443-6.887 3.684-10.78 3.504l-74.745-3.527-41.082 62.543c-2.142 3.261-5.403 5.634-9.171 6.663l-72.179 19.742-19.742 72.179c-1.031 3.766-3.4 7.026-6.664 9.172l-62.541 41.082 3.527 74.745c0.184 3.902-1.062 7.735-3.504 10.78l-46.788 58.396 26.453 69.998c1.38 3.653 1.38 7.683 0 11.336l-26.453 69.997 46.788 58.398c2.441 3.045 3.688 6.88 3.504 10.78l-3.527 74.745 62.541 41.082c3.263 2.142 5.634 5.404 6.664 9.172l19.742 72.179 72.179 19.742c3.765 1.031 7.026 3.4 9.171 6.664l41.082 62.541 74.745-3.527c3.897-0.182 7.734 1.062 10.78 3.504l58.398 46.788 69.997-26.453c3.654-1.38 7.685-1.38 11.336 0l69.998 26.453 58.396-46.788c3.045-2.445 6.882-3.688 10.78-3.504l74.745 3.527 41.082-62.541c2.142-3.263 5.403-5.634 9.172-6.664l72.177-19.742 19.744-72.179c1.029-3.766 3.398-7.026 6.663-9.172l62.543-41.082-3.529-74.745c-0.182-3.902 1.062-7.735 3.505-10.78l46.788-58.398-26.455-69.997c-1.375-3.653-1.375-7.683 0.005-11.336zM813.268 724.851c-3.991 4.344-8.127 8.664-12.305 12.84s-8.497 8.316-12.84 12.306c-6.522 5.988-16.665 5.555-22.655-0.969-5.987-6.522-5.555-16.665 0.969-22.655 4.006-3.679 7.993-7.499 11.85-11.356 3.855-3.853 7.677-7.844 11.358-11.851 3.162-3.445 7.483-5.19 11.818-5.19 3.872 0 7.76 1.395 10.837 4.221 6.522 5.988 6.957 16.131 0.969 22.653zM731.185 793.751c-77.32 49.259-170.414 71.151-262.119 61.658-93.050-9.639-180.79-51.444-247.062-117.713-72.933-72.935-115.397-169.823-119.57-272.816-4.146-102.388 29.766-201.797 95.491-279.908 3.171-3.768 7.707-5.711 12.278-5.711 3.644 0 7.309 1.236 10.314 3.765 6.773 5.701 7.647 15.815 1.946 22.59-60.562 71.978-91.81 163.591-87.99 257.963 3.843 94.924 42.981 184.221 110.202 251.441 61.080 61.082 141.944 99.612 227.693 108.494 84.55 8.759 170.342-11.418 241.585-56.807 7.469-4.759 17.378-2.562 22.135 4.906 4.76 7.471 2.563 17.381-4.902 22.14zM857.021 667.914c-4.757 7.469-14.674 9.666-22.136 4.908-7.471-4.759-9.663-14.671-4.908-22.135 45.389-71.245 65.563-157.040 56.807-241.585-8.883-85.747-47.412-166.609-108.492-227.693-67.223-67.221-156.518-106.357-251.441-110.202-94.357-3.837-185.988 27.427-257.963 87.985-6.775 5.702-16.888 4.831-22.59-1.944s-4.831-16.889 1.946-22.592c73.842-62.129 166.701-95.833 263.131-95.831 5.578 0 11.179 0.114 16.777 0.34 102.996 4.17 199.881 46.634 272.817 119.569 66.271 66.271 108.077 154.015 117.715 247.063 9.494 91.712-12.402 184.8-61.664 262.117z" />
<glyph unicode="&#xe925;" glyph-name="reliability" d="M1006.933 345.6h-99.616l-92.284 30.716-29.967 74.959v56.459c-0.117 39.042-29.574 71.75-68.384 75.942 0 2.342 0.117 4.683 0.117 7.017v249.841c0 7.541-4.941 14.182-12.166 16.35l-341.333 102.4c-3.2 0.958-6.601 0.958-9.801 0l-341.333-102.4c-7.215-2.167-12.166-8.809-12.166-16.35v-249.841c0-7.917 0.533-15.733 0.817-23.601 0.433-11.524 1.075-22.976 2.099-34.357 0.175-1.941 0.407-3.767 0.599-5.683 20.96-216.693 152.243-407.243 347.26-504.009 4.8-2.4 10.449-2.4 15.258 0 25.525 12.817 50.176 27.334 73.758 43.45 5.359-7.383 12.126-13.626 19.917-18.366-17.041-20.324-20.766-48.674-9.557-72.717 11.209-24.034 35.326-39.401 61.85-39.409h290.133c3.375 0 6.667 1.001 9.474 2.867l98.042 65.399h97.284c9.425 0 17.067 7.642 17.067 17.067v307.2c0 9.425-7.642 17.067-17.067 17.067zM637.557 429.451l19.902-49.717h-99.157c36.241 65.009 55.492 138.116 55.983 212.55l68.382 20.508v-22.099c0-3.65-0.117-7.283-0.183-10.942-30.5-10.833-50.916-39.65-51.017-72.017v-46.575c-0.009-10.867 2.059-21.626 6.091-31.708zM392.533 311.467c0.017-17.434 6.741-34.199 18.775-46.816-6.334-4.608-12.542-9.382-19.083-13.649l-33.826-21.643-33.758 21.692c-75.676 48.508-133.216 120.659-163.684 205.225l418.816 125.649c-2.334-71.607-23.467-141.342-61.276-202.191h-57.698c-37.698 0-68.267-30.566-68.267-68.267zM43.401 486.618c-0.134 0.858-0.292 1.709-0.425 2.534l67.825 20.292c2.007-10.242 4.45-20.484 7.183-30.483l-68.8-20.651c-2.251 9.79-4.109 19.132-5.783 28.307zM35.535 555.174l67.501 20.258c0.476-10.701 1.259-21.333 2.492-31.874l-67.349-20.209c-0.166 1.534-0.301 3.051-0.476 4.591-0.868 8.802-1.66 17.734-2.167 27.234zM580.267 754.242l-443.733-133.118v122.042l222.449 79.441 221.284-63.206v-5.158zM580.267 718.609v-32.634l-441.408-132.418c-1.075 10.601-1.741 21.276-2.016 32.017l443.424 133.035zM682.667 681.058v-32.625l-68.267-20.484v32.634l68.267 20.476zM682.667 716.7l-68.267-20.484v32.634l68.267 20.476v-32.625zM143.635 519.358l436.631 130.985v-32.634l-429.6-128.883c-2.699 10.065-5.107 20.224-7.031 30.532zM34.133 827.834l324.267 97.284 324.267-97.284v-42.867l-68.267-20.484v7.785c0 7.616-5.050 14.308-12.375 16.401l-238.933 68.267c-3.418 0.992-7.074 0.883-10.426-0.324l-238.933-85.333c-6.799-2.428-11.332-8.86-11.332-16.077v-144.316l-68.267-20.484v237.434zM358.4 57.551c-146.999 75.507-256.098 208.617-301.291 367.582l71.117 21.333c32.817-92.384 95.418-171.226 177.95-224.126l42.991-27.633c5.626-3.616 12.843-3.616 18.466 0l43.433 27.925c-6.007-28.316 6.716-57.308 31.625-72.058-10.357-12.284-16.034-27.842-16.026-43.908 0.034-2.374 0.192-4.742 0.476-7.1-21.948-15.524-44.907-29.568-68.74-42.016zM797.018-29.867h-285.018c-18.85 0-34.133 15.283-34.133 34.133-0.034 17.717 13.626 32.459 31.3 33.775 9.173 0.949 16.015 8.875 15.616 18.091-0.358 9.167-7.891 16.407-17.067 16.401h-12.783c-18.85 0-34.133 15.283-34.133 34.133s15.283 34.133 34.133 34.133c9.425 0 17.067 7.642 17.067 17.067s-7.642 17.067-17.067 17.067h-17.067c-18.85 0-34.133 15.283-34.133 34.133s15.283 34.133 34.133 34.133c9.425 0 17.067 7.642 17.067 17.067s-7.642 17.067-17.067 17.067h-17.067c-18.85 0-34.133 15.283-34.133 34.133s15.283 34.133 34.133 34.133h221.867c5.666-0.009 10.967 2.801 14.142 7.501 3.183 4.691 3.825 10.65 1.717 15.917l-29.259 73.109c-2.434 6.050-3.676 12.508-3.667 19.034v46.573c0 23.567 19.1 42.667 42.667 42.667s42.667-19.1 42.667-42.667v-59.733c0-2.176 0.416-4.324 1.207-6.351l34.133-85.333c1.884-4.651 5.709-8.25 10.466-9.85l90.726-30.242v-285.758l-90.449-60.333zM989.867 38.4h-68.267v273.067h68.267v-273.067zM898.050 740.866l-23.334-24.926c7.791-7.292 15.117-15.068 21.933-23.275l26.251 21.824c-7.725 9.301-16.023 18.11-24.849 26.377zM989.867 529.084c0 6.692-0.224 13.316-0.683 19.883l-34.050-2.308c0.393-5.801 0.591-11.659 0.599-17.574 0-4.834-0.134-9.643-0.407-14.409l34.133-1.958c0.275 5.425 0.407 10.882 0.407 16.367zM870.142 763.917c-9.783 7.117-20 13.617-30.601 19.458l-16.467-29.884c9.342-5.124 18.351-10.825 26.982-17.067l20.085 27.492zM985.158 476.774l-33.591 6.108c-1.901-10.492-4.467-20.849-7.676-31.008l32.525-10.242c3.65 11.518 6.566 23.251 8.742 35.142zM806.741 798.859c-11.249 4.467-22.767 8.218-34.492 11.226l-8.533-33.058c10.334-2.667 20.491-5.967 30.417-9.901l12.608 31.733zM923.733 405.075l29.867-16.55c3.418 6.259 6.825 12.674 9.741 19.249l-30.991 14.268c-2.615-5.766-5.483-11.424-8.617-16.966zM915.541 666.859c5.734-8.975 10.908-18.3 15.501-27.917l30.816 14.641c-5.193 10.916-11.059 21.5-17.574 31.676l-28.742-18.4zM942.933 609.299c3.326-10.125 6.016-20.45 8.058-30.908l33.5 6.5c-2.308 11.874-5.359 23.601-9.15 35.091l-32.407-10.684zM767.759 634.5c41.474-16.425 68.651-56.567 68.508-101.167h34.133c0.201 58.575-35.501 111.292-89.958 132.866l-6.091 2.434-12.7-31.676 6.108-2.458z" />
<glyph unicode="&#xe926;" glyph-name="rule" d="M232.202 54.412c7.5 0 14.548 2.919 19.846 8.221l101.709 101.706c10.941 10.943 10.944 28.749 0.004 39.692-5.302 5.302-12.35 8.221-19.847 8.221-7.495 0-14.543-2.919-19.844-8.22l-101.711-101.708c-10.94-10.943-10.94-28.747-0.001-39.691 5.301-5.302 12.35-8.221 19.846-8.221zM386.495 208.703c17.986 0 27.396 14.125 27.396 28.076 0 7.155-2.406 13.897-6.775 18.983-5.023 5.849-12.348 9.070-20.622 9.070-17.986 0-27.397-14.125-27.397-28.076 0-7.155 2.406-13.898 6.775-18.984 5.025-5.846 12.347-9.069 20.624-9.069zM1009.892 739.374l-206.515 206.513c-5.306 5.302-12.354 8.221-19.846 8.221s-14.541-2.919-19.841-8.219l-271.605-271.602-1.196-0.598-0.674-1.272-476.105-476.099c-5.301-5.309-8.219-12.355-8.219-19.844 0-7.494 2.919-14.542 8.219-19.843l206.514-206.516c5.302-5.3 12.35-8.219 19.843-8.219s14.541 2.919 19.842 8.219l749.577 749.574c5.225 5.224 8.22 12.456 8.22 19.843 0 7.493-2.917 14.538-8.216 19.843zM150.283 168.35c7.494 0 14.542 2.919 19.843 8.219 10.941 10.943 10.941 28.749 0.001 39.694l-28.344 28.345 28.458 28.458 56.632-56.632c5.3-5.3 12.347-8.217 19.843-8.217s14.542 2.918 19.843 8.217c5.301 5.301 8.221 12.349 8.221 19.846 0 7.495-2.919 14.542-8.22 19.844l-56.631 56.63 28.455 28.454 28.345-28.344c5.3-5.299 12.347-8.217 19.843-8.217 7.495 0 14.542 2.918 19.843 8.217 10.941 10.944 10.941 28.75 0.002 39.694l-28.346 28.345 28.448 28.447 56.64-56.64c5.301-5.301 12.348-8.22 19.843-8.22s14.541 2.919 19.843 8.219c10.941 10.944 10.941 28.749 0.001 39.691l-56.643 56.643 28.452 28.451 28.344-28.333c5.298-5.297 12.344-8.217 19.839-8.217 7.5 0 14.548 2.921 19.848 8.227 10.938 10.943 10.934 28.749-0.011 39.69l-28.335 28.321 28.464 28.464 56.641-56.641c5.3-5.301 12.348-8.22 19.844-8.22 7.499 0 14.547 2.919 19.846 8.223 10.938 10.94 10.938 28.745 0 39.689l-56.644 56.643 28.446 28.446 28.342-28.344c5.304-5.3 12.349-8.22 19.846-8.22 7.489 0 14.538 2.919 19.839 8.219 5.304 5.302 8.22 12.35 8.22 19.847s-2.918 14.544-8.218 19.844l-28.328 28.342 28.448 28.448 56.641-56.644c5.301-5.301 12.349-8.22 19.841-8.22s14.541 2.918 19.841 8.219c10.945 10.944 10.945 28.749 0.002 39.691l-56.641 56.644 28.458 28.455 28.333-28.333c5.301-5.301 12.347-8.22 19.843-8.22 7.494 0 14.541 2.919 19.841 8.22 10.943 10.941 10.943 28.746 0 39.69l-28.328 28.335 28.458 28.459 56.641-56.641c5.301-5.301 12.349-8.22 19.843-8.22s14.541 2.919 19.843 8.22c5.301 5.299 8.22 12.348 8.22 19.844s-2.919 14.544-8.223 19.846l-56.621 56.64 28.446 28.446 166.82-166.82-709.879-709.884-166.821 166.823 28.446 28.446 28.345-28.345c5.302-5.3 12.348-8.221 19.844-8.221z" />
<glyph unicode="&#xe927;" glyph-name="arrows-alt-h" d="M755.882 620.118v-92.118h-487.764v92.118c0 42.764-51.702 64.18-81.942 33.942l-172.118-172.118c-18.746-18.746-18.746-49.136 0-67.882l172.118-172.118c30.238-30.238 81.942-8.822 81.942 33.942v92.116h487.764v-92.118c0-42.764 51.702-64.18 81.942-33.942l172.118 172.118c18.746 18.746 18.746 49.136 0 67.882l-172.118 172.118c-30.238 30.24-81.942 8.824-81.942-33.94z" />
<glyph unicode="&#xe928;" glyph-name="arrows-alt-v" horiz-adv-x="512" d="M428.118 204.118h-92.118v487.764h92.118c42.764 0 64.18 51.702 33.942 81.942l-172.118 172.118c-18.746 18.746-49.136 18.746-67.882 0l-172.118-172.118c-30.238-30.238-8.822-81.942 33.942-81.942h92.116v-487.764h-92.118c-42.764 0-64.18-51.702-33.942-81.942l172.118-172.118c18.746-18.746 49.136-18.746 67.882 0l172.118 172.118c30.24 30.238 8.824 81.942-33.94 81.942z" />
<glyph unicode="&#xe929;" glyph-name="ruler" d="M245.816 659.196c-14.882-10.563-26.611-22.927-34.863-36.749-8.717-14.598-13.137-30.134-13.137-46.177 0-16.039 4.431-31.577 13.168-46.181 8.266-13.815 20.010-26.177 34.909-36.74 30-21.273 69.598-32.989 111.501-32.989s81.502 11.716 111.502 32.989c14.897 10.565 26.643 22.926 34.909 36.739 8.738 14.604 13.168 30.142 13.168 46.181 0 16.043-4.42 31.578-13.137 46.177-8.252 13.822-19.982 26.187-34.864 36.749-29.974 21.276-69.6 32.992-111.58 32.992s-81.605-11.716-111.577-32.99zM357.395 511.075c-51.318 0-105.75 28.139-105.75 65.202 0 49.423 67.914 69.38 111.463 68.271 68.404-1.742 95.338-37.699 95.321-68.271 0-40.389-49.719-65.202-101.035-65.202zM983.533 375.661h-279.57v193.682c0 35.137-9.414 69.193-27.979 101.222-17.74 30.608-43.041 58.041-75.203 81.536-31.899 23.305-68.974 41.585-110.195 54.334-42.534 13.155-87.679 19.826-134.179 19.826-46.503 0-91.648-6.67-134.183-19.826-41.221-12.749-78.297-31.030-110.198-54.334-32.161-23.497-57.462-50.928-75.203-81.536-18.564-32.029-27.978-66.084-27.978-101.222v-242.877c0-32.48 6.676-63.794 19.842-93.075 13.001-28.911 31.981-55.077 56.413-77.765 24.638-22.879 54.218-41.647 87.917-55.782 34.747-14.574 73.294-23.955 114.567-27.876l0.324-0.029 0.325-0.014c2.226-0.089 54.666-2.185 68.765-2.185h626.53c17.439 0 31.625 14.187 31.625 31.625v242.68c0.002 17.434-14.183 31.617-31.62 31.617zM261.375 231.558c-17.439 0-28.095-14.188-28.095-31.625v-54.27c-32.088 4.805-72.359 28.341-104.173 64.999-33.433 38.522-55.036 84.057-55.036 116.003v94.722c27.596-28.995 63.117-53.579 104.337-72.019 54.027-24.171 116.26-36.95 179.972-36.95h593.527v-179.427h-73.414v112.753c0 17.437-10.655 31.626-28.087 31.626-17.439 0-28.096-14.189-28.096-31.626v-112.953h-62.29v67.141c0 17.437-10.658 31.625-28.094 31.625-17.439 0-28.096-14.188-28.096-31.625v-67.143h-62.285v67.143c0 17.437-10.655 31.625-28.094 31.625-17.436 0-28.092-14.188-28.092-31.625v-67.143h-62.293v112.953c0 17.437-10.657 31.626-28.095 31.626s-28.095-14.189-28.095-31.626v-112.953h-58.925v67.143c0 17.437-10.657 31.625-28.095 31.625s-28.094-14.188-28.094-31.625v-67.143h-62.292v67.143c0 17.44-10.655 31.625-28.094 31.625zM641.705 569.138c0-50.839-28.982-98.968-81.609-135.522-53.986-37.5-125.973-58.151-202.701-58.151s-148.715 20.652-202.701 58.153c-52.625 36.554-81.607 84.687-81.607 135.528 0 50.759 29.109 98.885 81.966 135.515 54.117 37.505 125.978 58.16 202.342 58.16 76.436 0 148.321-20.654 202.414-58.158 52.811-36.617 81.896-84.746 81.896-135.523zM641.705 422.894v-47.233h-56.424c20.587 13.446 39.559 29.322 56.424 47.233z" />
<glyph unicode="&#xe92a;" glyph-name="arrow-sq-down" horiz-adv-x="896" d="M896 800v-704c0-53-43-96-96-96h-704c-53 0-96 43-96 96v704c0 53 43 96 96 96h704c53 0 96-43 96-96zM656.8 505.8l-144.8-151v365.2c0 26.6-21.4 48-48 48h-32c-26.6 0-48-21.4-48-48v-365.2l-144.8 151c-18.6 19.4-49.6 19.8-68.6 0.8l-21.8-22c-18.8-18.8-18.8-49.2 0-67.8l265.2-265.4c18.8-18.8 49.2-18.8 67.8 0l265.4 265.4c18.8 18.8 18.8 49.2 0 67.8l-21.8 22c-19 19-50 18.6-68.6-0.8z" />
<glyph unicode="&#xe92b;" glyph-name="arrow-sq-left" horiz-adv-x="896" d="M800 0h-704c-53 0-96 43-96 96v704c0 53 43 96 96 96h704c53 0 96-43 96-96v-704c0-53-43-96-96-96zM505.8 239.2l-151 144.8h365.2c26.6 0 48 21.4 48 48v32c0 26.6-21.4 48-48 48h-365.2l151 144.8c19.4 18.6 19.8 49.6 0.8 68.6l-22 21.8c-18.8 18.8-49.2 18.8-67.8 0l-265.4-265.2c-18.8-18.8-18.8-49.2 0-67.8l265.4-265.4c18.8-18.8 49.2-18.8 67.8 0l22 21.8c19 19 18.6 50-0.8 68.6z" />
<glyph unicode="&#xe92c;" glyph-name="arrow-sq-right" horiz-adv-x="896" d="M96 896h704c53 0 96-43 96-96v-704c0-53-43-96-96-96h-704c-53 0-96 43-96 96v704c0 53 43 96 96 96zM390.2 656.8l151-144.8h-365.2c-26.6 0-48-21.4-48-48v-32c0-26.6 21.4-48 48-48h365.2l-151-144.8c-19.4-18.6-19.8-49.6-0.8-68.6l22-21.8c18.8-18.8 49.2-18.8 67.8 0l265.4 265.2c18.8 18.8 18.8 49.2 0 67.8l-265.4 265.6c-18.8 18.8-49.2 18.8-67.8 0l-22-21.8c-19-19.2-18.6-50.2 0.8-68.8z" />
<glyph unicode="&#xe92d;" glyph-name="arrow-sq-up" horiz-adv-x="896" d="M0 96v704c0 53 43 96 96 96h704c53 0 96-43 96-96v-704c0-53-43-96-96-96h-704c-53 0-96 43-96 96zM239.2 390.2l144.8 151v-365.2c0-26.6 21.4-48 48-48h32c26.6 0 48 21.4 48 48v365.2l144.8-151c18.6-19.4 49.6-19.8 68.6-0.8l21.8 22c18.8 18.8 18.8 49.2 0 67.8l-265.2 265.4c-18.8 18.8-49.2 18.8-67.8 0l-265.6-265.4c-18.8-18.8-18.8-49.2 0-67.8l21.8-22c19.2-19 50.2-18.6 68.8 0.8z" />
<glyph unicode="&#xe92e;" glyph-name="dressmaker" d="M527.28 582.788c0 77.663-105.321 107.16-203.179 107.16s-203.178-28.32-203.178-107.16c0-75.349 105.321-94.212 203.178-94.212 97.858 0 203.179 29.456 203.179 94.212zM481.552 582.787c0-42.391-111.681-53.326-157.45-53.326-45.781 0-157.458 9.757-157.458 53.327 0 43.529 111.68 65.092 157.458 65.092 45.774-0.001 157.45-20.386 157.45-65.093zM976.697 462.090h-273.998c-5.471 0-22.354-1.921-26.357-5.252-3.999 3.332-9.112 5.252-14.582 5.252h-16.492v120.698c0 41.98-23.219 107.16-101.688 138.925-58.993 23.721-136.938 36.785-219.48 36.785-60.771 0-119.715-7.139-170.458-20.649-12.146-3.244-19.394-15.759-16.163-27.9 2.653-9.97 11.709-16.934 22.024-16.934 1.975 0 3.951 0.259 5.874 0.771 46.957 12.507 101.842 19.117 158.722 19.117 76.21 0 147.65-11.763 201.16-33.123 31.589-13.181 74.412-52.286 74.412-96.994 0-17.895-15.721-58.489-48.066-75.675-27.63-14.676-59.2-25.426-99.352-33.83-24.523-5.136-50.721-8.598-77.865-10.282-13.293-0.826-27.065-1.244-40.932-1.244-36.101 0-73.687 2.719-114.903 8.313-48.272 6.557-91.89 20.24-126.138 39.568-29.41 16.601-43.766 56.316-43.887 72.989 0 0.087-0.002 0.198-0.008 0.317 0.061 10.756 6.946 51.127 39.197 70.49 10.779 6.479 14.277 20.512 7.804 31.284-4.1 6.821-11.594 11.059-19.557 11.059-4.123 0-8.178-1.128-11.725-3.26-50.659-30.42-61.303-87.194-61.312-109.715v-214.88c0-41.099 14.669-81.005 41.307-112.37 26.273-30.935 62.591-51.827 102.281-58.842 0.884-0.207 1.714-0.354 2.524-0.448 9.265-1.497 18.63-2.258 27.832-2.258h799.824c24.467 0 44.375 19.907 44.375 44.375v179.342c0.002 24.468-19.906 44.373-44.372 44.373zM563.581 462.090c13.63 6.597 25.694 13.764 36.092 21.444v-21.444h-36.092zM975.478 416.496v-176.901h-182.664v176.901h182.664zM151.638 358.371c-12.573 0-20.447-10.226-20.447-22.799v-88.987c-8.072 3.274-22.872 9.735-30.177 14.628v50.888c0 12.573-5.52 22.801-18.092 22.801-11.797 0-21.53-9.011-22.68-20.515-7.715 16.683-11.722 34.834-11.722 53.529v115.584c36.883-27.616 82.035-41.006 118.312-49.676 48.143-11.501 101.050-17.331 157.252-17.331h337.676c5.467 0 10.579 1.921 14.582 5.252 4.002-3.332 20.885-5.252 26.357-5.252h44.522v-176.901h-25.442v48.894c0 0.364-0.009 0.722-0.025 1.082v48.426c0 12.573-7.873 22.801-20.446 22.801-12.568 0-20.439-10.228-20.439-22.801v-98.402h-28.984v48.894c0 12.574-6.695 22.8-19.259 22.8-12.575 0-19.269-10.226-19.269-22.8v-48.894h-29.003v95.975c0 12.574-7.873 22.8-20.446 22.8-12.568 0-20.438-10.226-20.438-22.8v-95.975h-29.009v48.894c0 12.574-6.695 22.8-19.262 22.8-12.573 0-19.27-10.226-19.27-22.8v-48.894h-29v93.694c0 12.573-7.874 22.801-20.447 22.801-12.568 0-20.439-10.228-20.439-22.801v-93.694h-29v48.894c0 12.574-6.697 22.8-19.27 22.8s-19.27-10.226-19.27-22.8v-48.894h-29v84.205c0 12.574-7.871 22.8-20.438 22.8-12.573 0-20.447-10.226-20.447-22.8v-84.205h-29v48.894c0 12.574-6.697 22.8-19.27 22.8-12.568 0-19.262-10.226-19.262-22.8v-48.894h-26.569c-0.786 0-1.595 0.011-2.44 0.029v95.945c0.001 12.578-7.869 22.805-20.44 22.805zM676.343 433.384c0.002 0.005 0.005 0.011 0.007 0.015 0.019-0.047 0.032-0.095 0.051-0.141-0.019 0.041-0.039 0.082-0.058 0.126-0.016-0.042-0.039-0.082-0.055-0.126 0.019 0.046 0.032 0.095 0.051 0.141 0.002-0.005 0.002-0.011 0.005-0.015zM717.046 289.391c0.016-0.298 0.025-0.598 0.025-0.9 0 0.169-0.021 0.332-0.025 0.501v0.399zM701.243 423.632c0.478-0.044 0.96-0.074 1.452-0.074-0.488 0-0.975 0.031-1.452 0.074zM691.743 428.012c0.244-0.234 0.494-0.464 0.752-0.683-0.258 0.22-0.508 0.447-0.752 0.683zM692.772 427.089c0.352-0.285 0.712-0.559 1.088-0.812-0.375 0.254-0.736 0.527-1.088 0.812zM694.078 426.139c0.311-0.205 0.627-0.399 0.955-0.58-0.326 0.181-0.644 0.375-0.955 0.58zM695.421 425.351c0.297-0.155 0.598-0.3 0.907-0.437-0.31 0.137-0.611 0.281-0.907 0.437zM696.694 424.75c0.425-0.174 0.858-0.337 1.299-0.476-0.444 0.139-0.875 0.3-1.299 0.476zM698.151 424.231c0.393-0.12 0.796-0.221 1.202-0.311-0.406 0.089-0.809 0.192-1.202 0.311zM699.786 423.838c0.338-0.065 0.683-0.117 1.028-0.158-0.347 0.042-0.687 0.094-1.028 0.158zM690.72 429.108c0.23-0.27 0.466-0.533 0.712-0.786-0.246 0.253-0.483 0.516-0.712 0.786zM677.204 431.611c0.172-0.311 12.129-0.613 12.322-0.909-0.193 0.295-12.147 0.598-12.322 0.909zM689.702 430.432c0.255-0.374 0.526-0.738 0.813-1.089-0.287 0.351-0.559 0.714-0.813 1.089zM676.543 432.938c0.142-0.319 0.294-0.636 0.456-0.945-0.161 0.31-0.313 0.624-0.456 0.945zM675.481 431.609c-0.172-0.307-0.357-0.609-0.55-0.902 0.193 0.294 0.374 0.594 0.55 0.902zM676.142 432.935c-0.142-0.319-0.292-0.632-0.453-0.94 0.161 0.308 0.311 0.62 0.453 0.94zM673.023 428.323c0.246 0.252 0.48 0.513 0.711 0.779-0.231-0.267-0.465-0.527-0.711-0.779zM673.943 429.344c0.285 0.35 0.557 0.711 0.811 1.085-0.254-0.373-0.526-0.734-0.811-1.085zM661.761 423.558c0.49 0 0.972 0.028 1.45 0.074-0.478-0.044-0.96-0.074-1.45-0.074zM663.641 423.682c0.347 0.041 0.69 0.093 1.028 0.158-0.338-0.065-0.68-0.117-1.028-0.158zM665.099 423.922c0.41 0.088 0.811 0.191 1.206 0.311-0.394-0.12-0.797-0.222-1.206-0.311zM666.459 424.275c0.444 0.139 0.876 0.301 1.301 0.477-0.424-0.177-0.857-0.338-1.301-0.477zM668.126 424.913c0.308 0.137 0.612 0.281 0.907 0.438-0.295-0.155-0.599-0.3-0.907-0.438zM669.421 425.558c0.326 0.181 0.644 0.375 0.957 0.579-0.313-0.202-0.631-0.397-0.957-0.579zM670.595 426.277c0.372 0.254 0.736 0.526 1.085 0.811-0.352-0.285-0.712-0.557-1.085-0.811zM671.961 427.331c0.258 0.22 0.508 0.446 0.75 0.679-0.241-0.233-0.492-0.459-0.75-0.679zM334.409 454.702c1.943 0.002 3.886 0.025 5.83 0.044-1.944-0.020-3.886-0.041-5.83-0.044zM324.509 454.756c0.447-0.005 0.895-0.016 1.342-0.021-0.448 0.006-0.896 0.016-1.342 0.021zM701.243 454.955c0.478 0.045 0.96 0.074 1.452 0.074-0.488-0.001-0.975-0.029-1.452-0.074zM700.814 454.906c-0.345-0.041-0.69-0.094-1.028-0.157 0.34 0.062 0.68 0.115 1.028 0.157zM699.354 454.664c-0.405-0.088-0.807-0.191-1.201-0.308 0.393 0.119 0.796 0.221 1.201 0.308zM697.993 454.312c-0.444-0.139-0.873-0.3-1.301-0.476 0.427 0.175 0.858 0.337 1.301 0.476zM696.326 453.673c-0.308-0.137-0.612-0.281-0.906-0.437 0.298 0.155 0.599 0.3 0.906 0.437zM695.032 453.028c-0.324-0.181-0.641-0.374-0.952-0.579 0.311 0.204 0.626 0.397 0.952 0.579zM693.86 452.309c-0.372-0.254-0.736-0.527-1.085-0.811 0.35 0.285 0.71 0.557 1.085 0.811zM692.492 451.254c-0.255-0.219-0.506-0.445-0.747-0.679 0.241 0.234 0.492 0.46 0.747 0.679zM691.432 450.263c-0.246-0.252-0.483-0.513-0.711-0.782 0.228 0.268 0.465 0.528 0.711 0.782zM676.338 445.185c-0.019 0.046-0.032 0.093-0.051 0.137zM674.936 447.871c0.191-0.292 0.37-0.589 0.543-0.892-0.173 0.304-0.352 0.601-0.543 0.892zM675.689 446.585c0.161-0.304 0.308-0.613 0.448-0.93-0.14 0.315-0.287 0.625-0.448 0.93zM673.728 449.487c-0.227 0.267-0.463 0.525-0.706 0.774 0.247-0.25 0.479-0.508 0.706-0.774zM674.751 448.157c-0.253 0.372-0.524 0.734-0.81 1.083 0.286-0.348 0.558-0.711 0.81-1.083zM663.214 454.955c-0.478 0.045-0.96 0.074-1.452 0.074 0.488-0.001 0.971-0.029 1.452-0.074zM672.708 450.576c-0.241 0.233-0.49 0.459-0.743 0.676 0.253-0.218 0.501-0.443 0.743-0.676zM671.678 451.498c-0.35 0.285-0.711 0.558-1.083 0.811 0.373-0.254 0.733-0.526 1.083-0.811zM670.375 452.45c-0.311 0.204-0.627 0.397-0.952 0.578 0.324-0.182 0.641-0.375 0.952-0.578zM669.035 453.237c-0.297 0.155-0.6 0.3-0.907 0.437 0.307-0.137 0.611-0.281 0.907-0.437zM667.761 453.836c-0.423 0.175-0.858 0.338-1.299 0.476 0.441-0.138 0.875-0.299 1.299-0.476zM666.304 454.356c-0.395 0.119-0.798 0.221-1.202 0.31 0.404-0.088 0.806-0.191 1.202-0.31zM664.669 454.749c-0.338 0.064-0.68 0.115-1.028 0.157 0.347-0.041 0.69-0.094 1.028-0.157zM144.306 711.765c0.129-0.488 0.286-0.96 0.458-1.425-0.172 0.465-0.328 0.937-0.458 1.425zM144.942 709.903c0.126-0.313 0.258-10.036 0.401-10.337-0.144 0.3-0.277 10.025-0.401 10.337zM145.588 699.086c0.145-0.277 0.297-0.547 0.457-0.813-0.159 0.266-0.312 0.537-0.457 0.813zM146.328 707.234c0.175-0.27 0.361-0.531 0.552-0.787-0.193 0.257-0.377 0.518-0.552 0.787zM147.163 706.066c0.255-0.321 0.523-0.633 0.802-0.933-0.279 0.3-0.546 0.611-0.802 0.933zM148.086 704.992c0.325-0.343 0.665-0.665 1.018-0.976-0.353 0.31-0.692 0.633-1.018 0.976zM155.761 700.534c-0.458 0.114-0.909 0.245-1.352 0.398 0.443-0.153 0.896-0.285 1.352-0.398zM154.139 701.035c-0.351 0.126-0.698 0.265-1.038 0.417 0.343-0.152 0.69-0.288 1.038-0.417zM152.665 701.662c-0.278 0.134-0.553 0.274-0.823 0.425 0.267-0.151 0.544-0.291 0.823-0.425zM151.388 702.352c-0.259 0.158-0.513 0.32-0.763 0.492 0.25-0.171 0.501-0.335 0.763-0.492zM150.205 703.136c-0.268 0.197-0.526 0.405-0.783 0.617 0.254-0.212 0.516-0.42 0.783-0.617zM156.126 700.458c0.341-0.075 0.684-0.144 1.030-0.197-0.346 0.053-0.69 0.121-1.030 0.197zM157.658 700.199c0.31-0.038 0.619-0.068 0.932-0.085-0.313 0.018-0.625 0.047-0.932 0.085zM159.127 700.091c0.391-0.009 0.783-0.009 1.176 0.012-0.266-0.015-0.532-0.026-0.797-0.026-0.127-0.001-0.253 0.012-0.379 0.014zM162.158 700.31c0.468 0.079 0.937 0.173 1.405 0.299-0.468-0.125-0.937-0.219-1.405-0.299zM160.453 700.106c0.46 0.027 0.92 0.080 1.383 0.151-0.463-0.069-0.924-0.122-1.383-0.151zM374.829 455.952c-3.366-0.21-6.734-0.39-10.102-0.545 3.37 0.157 6.737 0.335 10.102 0.545zM344.514 454.787c2.053 0.033 4.104 0.087 6.157 0.138-2.054-0.051-4.104-0.105-6.157-0.138zM354.619 455.021c2.28 0.072 4.559 0.167 6.838 0.259-2.28-0.094-4.56-0.189-6.838-0.259zM316.952 454.89c-0.89 0.020-1.78 0.042-2.671 0.067 0.889-0.025 1.778-0.047 2.671-0.067zM307.435 455.167c-0.718 0.025-1.436 0.047-2.154 0.074 0.717-0.027 1.435-0.048 2.154-0.074zM296.502 455.622c-0.623 0.031-1.246 0.068-1.869 0.099 0.623-0.032 1.245-0.067 1.869-0.099zM287.551 456.117c-0.887 0.053-1.775 0.108-2.662 0.165 0.886-0.056 1.774-0.111 2.662-0.165zM277.702 456.768c-0.574 0.041-1.15 0.078-1.724 0.122 0.574-0.044 1.15-0.081 1.724-0.122zM267.182 457.587c-0.72 0.061-1.441 0.125-2.161 0.187 0.72-0.061 1.442-0.127 2.161-0.187zM258.185 458.392c-0.873 0.082-1.747 0.165-2.62 0.25 0.875-0.085 1.748-0.167 2.62-0.25zM247.867 459.419c-0.379 0.040-0.76 0.075-1.139 0.118 0.381-0.041 0.762-0.078 1.139-0.118zM237.968 460.514c-0.809 0.094-1.616 0.191-2.425 0.286 0.809-0.095 1.616-0.193 2.425-0.286zM228.904 461.605c-0.852 0.107-1.704 0.213-2.555 0.32 0.853-0.108 1.704-0.213 2.555-0.32zM85.285 685.666c0.046-0.032 0.087-0.073 0.133-0.107-0.044 0.034-0.086 0.075-0.133 0.107zM88.376 682.649c-0.115 0.148-0.238 0.288-0.358 0.431 0.121-0.142 0.244-0.282 0.358-0.431zM87.095 684.092c-0.133 0.133-0.264 0.27-0.401 0.395 0.137-0.128 0.268-0.262 0.401-0.395zM76.274 688.693c-0.261 0.005-0.521 0.012-0.784 0.004 0.159 0.005 0.318 0.015 0.476 0.015 0.102 0 0.205-0.018 0.308-0.019zM83.755 686.646c-0.147 0.084-0.299 0.158-0.45 0.237 0.151-0.079 0.302-0.153 0.45-0.237zM82.094 687.456c-0.169 0.072-0.339 0.144-0.511 0.21 0.169-0.066 0.34-0.138 0.511-0.21zM80.13 688.14c-0.089 0.025-0.177 0.058-0.266 0.079 0.091-0.022 0.175-0.054 0.266-0.079zM78.099 688.559c-0.159 0.024-0.319 0.032-0.478 0.049 0.159-0.019 0.32-0.028 0.478-0.049zM69.145 687.138c-0.427-0.207-0.851-0.426-1.265-0.676 0.413 0.25 0.837 0.468 1.265 0.676zM75.155 688.686c-0.446-0.025-0.892-0.062-1.338-0.124 0.446 0.062 0.893 0.1 1.338 0.124zM73.611 688.527c-0.388-0.060-0.776-0.134-1.162-0.224 0.385 0.089 0.772 0.165 1.162 0.224zM72.108 688.222c-0.443-0.113-0.884-0.24-1.321-0.393 0.437 0.154 0.878 0.281 1.321 0.393zM70.667 687.782c-0.399-0.144-0.794-0.308-1.186-0.487 0.391 0.179 0.786 0.344 1.186 0.487zM918.657 329.71c0-18.851-15.282-34.133-34.133-34.133s-34.133 15.282-34.133 34.133c0 18.851 15.282 34.133 34.133 34.133s34.133-15.282 34.133-34.133z" />
<glyph unicode="&#xe92f;" glyph-name="apple-pay" horiz-adv-x="1280" d="M233.8 643c-15-17.8-39-31.8-63-29.8-3 24 8.8 49.6 22.6 65.2 15 18.2 41.2 31.2 62.6 32.2 2.4-24.8-7.4-49.4-22.2-67.6zM255.6 608.6c-34.8 2-64.6-19.8-81-19.8-16.8 0-42 18.8-69.6 18.2-35.8-0.6-69-20.8-87.2-53-37.6-64.6-9.8-160 26.6-212.6 17.8-26 39-54.6 67-53.6 26.6 1 37 17.2 69 17.2 32.2 0 41.6-17.2 69.6-16.8 29 0.6 47.2 26 65 52 20.2 29.6 28.6 58.2 29 59.8-0.6 0.6-56 21.8-56.6 85.8-0.6 53.6 43.8 79 45.8 80.6-25 37.2-64 41.2-77.6 42.2zM456.4 681v-389.8h60.6v133.2h83.8c76.6 0 130.2 52.6 130.2 128.6s-52.8 128-128.2 128h-146.4zM517 630h69.8c52.6 0 82.6-28 82.6-77.2s-30-77.6-82.8-77.6h-69.6v154.8zM841.4 288.2c38 0 73.2 19.2 89.2 49.8h1.2v-46.8h56v194c0 56.2-45 92.6-114.2 92.6-64.2 0-111.8-36.8-113.6-87.2h54.6c4.6 24 26.8 39.8 57.2 39.8 37 0 57.8-17.2 57.8-49v-21.6l-75.6-4.6c-70.2-4.2-108.2-33-108.2-83 0.2-50.4 39.4-84 95.6-84zM857.8 334.4c-32.2 0-52.8 15.6-52.8 39.2 0 24.6 19.8 38.8 57.6 41l67.2 4.2v-22c0-36.4-31-62.4-72-62.4zM1062.8 185.2c59 0 86.8 22.6 111 90.8l106.2 298h-61.6l-71.2-230.2h-1.2l-71.2 230.2h-63.2l102.4-283.8-5.6-17.2c-9.2-29.2-24.2-40.6-51-40.6-4.8 0-14 0.6-17.8 1v-46.8c3.6-0.8 18.6-1.4 23.2-1.4z" />
<glyph unicode="&#xe930;" glyph-name="shield" d="M192 548.001c-11.040 0-20-8.96-20-20s8.96-20 20-20 20 8.96 20 20-8.96 20-20 20zM912.001 788c-217.945 0-335.066 116.46-373.554 154.731-7.834 7.792-11.768 11.702-15.912 14.269-6.455 4.001-14.619 4.001-21.072 0-2.851-1.767-5.147-4.009-10.693-9.428-14.251-13.919-47.618-46.522-99.213-78.791-85.738-53.603-179.797-80.781-279.557-80.781-11.046 0-20-8.955-20-20v-262.38c0-125.96 39.737-245.951 114.916-347 81.528-109.555 187.834-188.316 299.336-221.776 1.874-0.561 3.812-0.843 5.749-0.843s3.873 0.283 5.749 0.843c111.502 33.461 217.807 112.222 299.338 221.78 75.179 101.048 114.914 221.037 114.914 346.997v262.38c0 11.046-8.955 20-20 20zM891.999 505.62c0-117.292-37.001-229.028-107.003-323.121-75.013-100.795-171.756-173.596-272.996-205.573-101.24 31.977-197.983 104.778-272.995 205.571-70.003 94.093-107.006 205.831-107.006 323.122v242.72c99.95 3.415 194.309 32.477 280.767 86.525 48.364 30.25 81.615 60.617 99.331 77.66 41.944-41.659 161.578-157.48 379.902-164.216v-242.688zM834.202 712.219c-110.083 12.186-214.518 56.732-310.413 132.402-7.181 5.665-17.286 5.741-24.544 0.182-94.983-72.694-204.942-119.637-309.626-132.185-10.054-1.206-17.62-9.733-17.62-19.858v-84.759c0-11.046 8.955-20 20-20s20 8.955 20 20v67.3c76.091 11.584 184.134 43.818 299.219 128.479 93.333-70.72 194.371-114.076 300.782-129.081v-169.080c0-99.954-31.538-195.156-91.211-275.325-57.145-76.864-129.215-133.050-208.787-162.868-79.567 29.816-151.631 85.989-208.776 162.834-48.146 64.689-78.57 140.823-87.984 220.173-1.3 10.968-11.242 18.824-22.217 17.503-10.968-1.3-18.805-11.247-17.503-22.215 10.237-86.287 43.301-169.050 95.613-239.338 63.488-85.373 144.468-147.304 234.188-179.096 2.16-0.765 4.421-1.148 6.679-1.148s4.519 0.383 6.679 1.148c89.725 31.794 170.714 93.74 234.205 179.131 64.842 87.117 99.116 190.579 99.116 299.202v186.719c-0.002 10.195-7.668 18.757-17.8 19.879zM710.542 521.582c-2.354 7.24-8.612 12.517-16.146 13.613l-114.191 16.588-51.049 103.468c-3.368 6.828-10.322 11.15-17.933 11.152-7.611 0-14.567-4.322-17.933-11.149l-51.066-103.473-114.194-16.588c-7.533-1.094-13.792-6.372-16.145-13.612s-0.39-15.188 5.061-20.502l82.629-80.543-19.503-113.736c-1.288-7.501 1.799-15.087 7.958-19.56 3.484-2.533 7.61-3.82 11.756-3.82 3.184 0 6.38 0.758 9.306 2.299l102.131 53.706 102.109-53.705c6.74-3.542 14.907-2.957 21.064 1.519 6.161 4.474 9.246 12.059 7.959 19.561l-19.503 113.736 82.631 80.543c5.45 5.309 7.411 13.257 5.060 20.5zM587.4 441.841c-4.713-4.593-6.867-11.214-5.752-17.701l14.426-84.152-75.547 39.732c-5.828 3.064-12.79 3.064-18.618 0l-75.57-39.739 14.43 84.155c1.114 6.489-1.037 13.11-5.752 17.702l-61.139 59.593 84.495 12.273c6.514 0.945 12.146 5.038 15.059 10.941l37.783 76.554 37.768-76.552c2.911-5.903 8.543-9.997 15.060-10.944l84.493-12.275-61.135-59.588z" />
<glyph unicode="&#xe931;" glyph-name="sq-bag" horiz-adv-x="810" d="M796.858 714.24h-160.116c0 131.405-97.598 238.313-229.004 238.313s-229.004-106.907-229.004-238.313h-160.116v-776.378h778.24v776.378zM407.738 892.975c98.555 0 169.425-80.179 169.425-178.735h-338.851c0 98.555 70.87 178.735 169.425 178.735zM737.28-2.56h-659.084v657.222h100.538v-89.367h59.578v89.367h338.851v-89.367h59.578v89.367h100.538v-657.222z" />
</font>
</defs>
</svg>
